<?xml version="1.0" standalone="no"?>
<!DOCTYPE svg PUBLIC "-//W3C//DTD SVG 1.1//EN" "http://www.w3.org/Graphics/SVG/1.1/DTD/svg11.dtd" >
<svg xmlns="http://www.w3.org/2000/svg" xmlns:xlink="http://www.w3.org/1999/xlink" version="1.1">
<metadata>
Created by FontForge 20200314 at Wed Oct 21 03:22:12 2020
 By Innagp01
Font Awesome
</metadata>
<defs>
<font id="FontAwesome5ProSolid" horiz-adv-x="512" >
  <font-face 
    font-family="Font Awesome 5 Pro"
    font-weight="400"
    font-stretch="normal"
    units-per-em="512"
    panose-1="2 0 5 3 0 0 0 0 0 0"
    ascent="448"
    descent="-64"
    bbox="-0.555556 -64.5 640.629 448.538"
    underline-thickness="0"
    underline-position="5"
    unicode-range="U+F000-F7E4"
  />
<missing-glyph horiz-adv-x="0" 
 />
    <glyph glyph-name=".notdef" horiz-adv-x="0" 
 />
    <glyph glyph-name="abacus" unicode="&#xf640;" horiz-adv-x="576" 
d="M32 448q-13 0 -22.5 -9.5t-9.5 -22.5v-464q0 -7 4.5 -11.5t11.5 -4.5h32q7 0 11.5 4.5t4.5 11.5v464q0 13 -9.5 22.5t-22.5 9.5zM544 448q-13 0 -22.5 -9.5t-9.5 -22.5v-464q0 -7 4.5 -11.5t11.5 -4.5h32q7 0 11.5 4.5t4.5 11.5v464q0 13 -9.5 22.5t-22.5 9.5zM464 416
h-32q-7 0 -11.5 -4.5t-4.5 -11.5v-24h-160v24q0 7 -4.5 11.5t-11.5 4.5h-32q-7 0 -11.5 -4.5t-4.5 -11.5v-24h-32v24q0 7 -4.5 11.5t-11.5 4.5h-32q-7 0 -11.5 -4.5t-4.5 -11.5v-96q0 -7 4.5 -11.5t11.5 -4.5h32q7 0 11.5 4.5t4.5 11.5v24h32v-24q0 -7 4.5 -11.5t11.5 -4.5
h32q7 0 11.5 4.5t4.5 11.5v24h160v-24q0 -7 4.5 -11.5t11.5 -4.5h32q7 0 11.5 4.5t4.5 11.5v96q0 7 -4.5 11.5t-11.5 4.5zM352 240q0 7 -4.5 11.5t-11.5 4.5h-32q-7 0 -11.5 -4.5t-4.5 -11.5v-24h-32v24q0 7 -4.5 11.5t-11.5 4.5h-32q-7 0 -11.5 -4.5t-4.5 -11.5v-24h-32v24
q0 7 -4.5 11.5t-11.5 4.5h-32q-7 0 -11.5 -4.5t-4.5 -11.5v-96q0 -7 4.5 -11.5t11.5 -4.5h32q7 0 11.5 4.5t4.5 11.5v24h32v-24q0 -7 4.5 -11.5t11.5 -4.5h32q7 0 11.5 4.5t4.5 11.5v24h32v-24q0 -7 4.5 -11.5t11.5 -4.5h32q7 0 11.5 4.5t4.5 11.5v24h128v48h-128v24z
M464 96h-32q-7 0 -11.5 -4.5t-4.5 -11.5v-24h-160v24q0 7 -4.5 11.5t-11.5 4.5h-32q-7 0 -11.5 -4.5t-4.5 -11.5v-24h-32v24q0 7 -4.5 11.5t-11.5 4.5h-32q-7 0 -11.5 -4.5t-4.5 -11.5v-96q0 -7 4.5 -11.5t11.5 -4.5h32q7 0 11.5 4.5t4.5 11.5v24h32v-24q0 -7 4.5 -11.5
t11.5 -4.5h32q7 0 11.5 4.5t4.5 11.5v24h160v-24q0 -7 4.5 -11.5t11.5 -4.5h32q7 0 11.5 4.5t4.5 11.5v96q0 7 -4.5 11.5t-11.5 4.5z" />
    <glyph glyph-name="acorn" unicode="&#xf6ae;" horiz-adv-x="448" 
d="M175 -40l49 -24l49 24q66 33 104.5 95.5t38.5 136.5h-384q0 -74 38.5 -136.5t104.5 -95.5zM352 384h-100q5 14 15 26q4 5 3.5 11t-4.5 11l-11 11q-6 6 -12.5 5.5t-11.5 -5.5q-21 -25 -29 -59h-106q-40 0 -68 -28t-28 -68v-32q0 -13 9.5 -22.5t22.5 -9.5h384
q13 0 22.5 9.5t9.5 22.5v32q0 40 -28 68t-68 28z" />
    <glyph glyph-name="ad" unicode="&#xf641;" 
d="M158 176h36l-18 53zM352 192q-10 0 -17 -7t-7 -17t7 -17t17 -7t17 7t7 17t-7 17t-17 7zM464 384h-416q-20 0 -34 -14t-14 -34v-288q0 -20 14 -34t34 -14h416q20 0 34 14t14 34v288q0 20 -14 34t-34 14zM251 96h-17q-5 0 -9.5 3t-5.5 8l-8 21h-70l-8 -21q-1 -5 -5.5 -8
t-9.5 -3h-17q-8 0 -12.5 6.5t-2.5 14.5l54 155q3 7 9 11.5t14 4.5h26q8 0 14 -4.5t9 -11.5l54 -155q2 -8 -2.5 -14.5t-12.5 -6.5zM424 112q0 -7 -4.5 -11.5t-11.5 -4.5h-16q-7 0 -12 6q-13 -6 -28 -6q-30 0 -51 21t-21 51t21 51t51 21q12 0 24 -4v36q0 7 4.5 11.5t11.5 4.5
h16q7 0 11.5 -4.5t4.5 -11.5v-160z" />
    <glyph glyph-name="address-book" unicode="&#xf2b9;" horiz-adv-x="448" 
d="M436 288q5 0 8.5 3.5t3.5 8.5v40q0 5 -3.5 8.5t-8.5 3.5h-20v48q0 20 -14 34t-34 14h-320q-20 0 -34 -14t-14 -34v-416q0 -20 14 -34t34 -14h320q20 0 34 14t14 34v48h20q5 0 8.5 3.5t3.5 8.5v40q0 5 -3.5 8.5t-8.5 3.5h-20v64h20q5 0 8.5 3.5t3.5 8.5v40q0 5 -3.5 8.5
t-8.5 3.5h-20v64h20zM208 320q26 0 45 -19t19 -45t-19 -45t-45 -19t-45 19t-19 45t19 45t45 19zM320 83q0 -8 -6.5 -13.5t-15.5 -5.5h-180q-9 0 -15.5 5.5t-6.5 13.5v19q0 24 19.5 41t47.5 17h5q19 -8 40 -8t40 8h5q28 0 47.5 -17t19.5 -41v-19z" />
    <glyph glyph-name="address-card" unicode="&#xf2bb;" horiz-adv-x="576" 
d="M528 416h-480q-20 0 -34 -14t-14 -34v-352q0 -20 14 -34t34 -14h480q20 0 34 14t14 34v352q0 20 -14 34t-34 14zM176 320q26 0 45 -19t19 -45t-19 -45t-45 -19t-45 19t-19 45t19 45t45 19zM288 83q0 -8 -6.5 -13.5t-15.5 -5.5h-180q-9 0 -15.5 5.5t-6.5 13.5v19
q0 24 19.5 41t47.5 17h5q19 -8 40 -8t40 8h5q28 0 47.5 -17t19.5 -41v-19zM512 136q0 -3 -2.5 -5.5t-5.5 -2.5h-144q-3 0 -5.5 2.5t-2.5 5.5v16q0 3 2.5 5.5t5.5 2.5h144q3 0 5.5 -2.5t2.5 -5.5v-16zM512 200q0 -3 -2.5 -5.5t-5.5 -2.5h-144q-3 0 -5.5 2.5t-2.5 5.5v16
q0 3 2.5 5.5t5.5 2.5h144q3 0 5.5 -2.5t2.5 -5.5v-16zM512 264q0 -3 -2.5 -5.5t-5.5 -2.5h-144q-3 0 -5.5 2.5t-2.5 5.5v16q0 3 2.5 5.5t5.5 2.5h144q3 0 5.5 -2.5t2.5 -5.5v-16z" />
    <glyph glyph-name="adjust" unicode="&#xf042;" 
d="M8 192q0 -67 33.5 -124t90.5 -90.5t124 -33.5t124 33.5t90.5 90.5t33.5 124t-33.5 124t-90.5 90.5t-124 33.5t-124 -33.5t-90.5 -90.5t-33.5 -124zM256 8v368q50 0 92.5 -24.5t67 -67t24.5 -92.5t-24.5 -92.5t-67 -67t-92.5 -24.5z" />
    <glyph glyph-name="align-center" unicode="&#xf037;" horiz-adv-x="448" 
d="M352 404v-40q0 -7 -4.5 -11.5t-11.5 -4.5h-224q-7 0 -11.5 4.5t-4.5 11.5v40q0 7 4.5 11.5t11.5 4.5h224q7 0 11.5 -4.5t4.5 -11.5zM16 220h416q7 0 11.5 4.5t4.5 11.5v40q0 7 -4.5 11.5t-11.5 4.5h-416q-7 0 -11.5 -4.5t-4.5 -11.5v-40q0 -7 4.5 -11.5t11.5 -4.5z
M16 -36h416q7 0 11.5 4.5t4.5 11.5v40q0 7 -4.5 11.5t-11.5 4.5h-416q-7 0 -11.5 -4.5t-4.5 -11.5v-40q0 -7 4.5 -11.5t11.5 -4.5zM336 164h-224q-7 0 -11.5 -4.5t-4.5 -11.5v-40q0 -7 4.5 -11.5t11.5 -4.5h224q7 0 11.5 4.5t4.5 11.5v40q0 7 -4.5 11.5t-11.5 4.5z" />
    <glyph glyph-name="align-justify" unicode="&#xf039;" horiz-adv-x="448" 
d="M0 364v40q0 7 4.5 11.5t11.5 4.5h416q7 0 11.5 -4.5t4.5 -11.5v-40q0 -7 -4.5 -11.5t-11.5 -4.5h-416q-7 0 -11.5 4.5t-4.5 11.5zM16 220h416q7 0 11.5 4.5t4.5 11.5v40q0 7 -4.5 11.5t-11.5 4.5h-416q-7 0 -11.5 -4.5t-4.5 -11.5v-40q0 -7 4.5 -11.5t11.5 -4.5zM16 -36
h416q7 0 11.5 4.5t4.5 11.5v40q0 7 -4.5 11.5t-11.5 4.5h-416q-7 0 -11.5 -4.5t-4.5 -11.5v-40q0 -7 4.5 -11.5t11.5 -4.5zM16 92h416q7 0 11.5 4.5t4.5 11.5v40q0 7 -4.5 11.5t-11.5 4.5h-416q-7 0 -11.5 -4.5t-4.5 -11.5v-40q0 -7 4.5 -11.5t11.5 -4.5z" />
    <glyph glyph-name="align-left" unicode="&#xf036;" horiz-adv-x="448" 
d="M288 404v-40q0 -7 -4.5 -11.5t-11.5 -4.5h-256q-7 0 -11.5 4.5t-4.5 11.5v40q0 7 4.5 11.5t11.5 4.5h256q7 0 11.5 -4.5t4.5 -11.5zM0 276v-40q0 -7 4.5 -11.5t11.5 -4.5h416q7 0 11.5 4.5t4.5 11.5v40q0 7 -4.5 11.5t-11.5 4.5h-416q-7 0 -11.5 -4.5t-4.5 -11.5zM16 -36
h416q7 0 11.5 4.5t4.5 11.5v40q0 7 -4.5 11.5t-11.5 4.5h-416q-7 0 -11.5 -4.5t-4.5 -11.5v-40q0 -7 4.5 -11.5t11.5 -4.5zM272 164h-256q-7 0 -11.5 -4.5t-4.5 -11.5v-40q0 -7 4.5 -11.5t11.5 -4.5h256q7 0 11.5 4.5t4.5 11.5v40q0 7 -4.5 11.5t-11.5 4.5z" />
    <glyph glyph-name="align-right" unicode="&#xf038;" horiz-adv-x="448" 
d="M160 364v40q0 7 4.5 11.5t11.5 4.5h256q7 0 11.5 -4.5t4.5 -11.5v-40q0 -7 -4.5 -11.5t-11.5 -4.5h-256q-7 0 -11.5 4.5t-4.5 11.5zM16 220h416q7 0 11.5 4.5t4.5 11.5v40q0 7 -4.5 11.5t-11.5 4.5h-416q-7 0 -11.5 -4.5t-4.5 -11.5v-40q0 -7 4.5 -11.5t11.5 -4.5z
M16 -36h416q7 0 11.5 4.5t4.5 11.5v40q0 7 -4.5 11.5t-11.5 4.5h-416q-7 0 -11.5 -4.5t-4.5 -11.5v-40q0 -7 4.5 -11.5t11.5 -4.5zM176 92h256q7 0 11.5 4.5t4.5 11.5v40q0 7 -4.5 11.5t-11.5 4.5h-256q-7 0 -11.5 -4.5t-4.5 -11.5v-40q0 -7 4.5 -11.5t11.5 -4.5z" />
    <glyph glyph-name="allergies" unicode="&#xf461;" horiz-adv-x="448" 
d="M416 336q-13 0 -22.5 -9.5t-9.5 -22.5v-72q0 -3 -2.5 -5.5t-5.5 -2.5h-16q-3 0 -5.5 2.5t-2.5 5.5v152q0 13 -9.5 22.5t-22.5 9.5t-22.5 -9.5t-9.5 -22.5v-152q0 -3 -2.5 -5.5t-5.5 -2.5h-16q-3 0 -5.5 2.5t-2.5 5.5v184q0 13 -9.5 22.5t-22.5 9.5t-22.5 -9.5t-9.5 -22.5
v-184q0 -3 -2.5 -5.5t-5.5 -2.5h-16q-3 0 -5.5 2.5t-2.5 5.5v152q0 13 -9.5 22.5t-22.5 9.5t-22.5 -9.5t-9.5 -22.5v-241l-24 33q-9 13 -25.5 15.5t-30 -7t-16 -26t7.5 -30.5l125 -172q7 -10 17.5 -15t21.5 -5h198q16 0 29.5 10.5t16.5 26.5l27 113q5 20 5 42v176
q0 13 -9.5 22.5t-22.5 9.5zM176 32q-7 0 -11.5 4.5t-4.5 11.5t4.5 11.5t11.5 4.5t11.5 -4.5t4.5 -11.5t-4.5 -11.5t-11.5 -4.5zM176 128q-7 0 -11.5 4.5t-4.5 11.5t4.5 11.5t11.5 4.5t11.5 -4.5t4.5 -11.5t-4.5 -11.5t-11.5 -4.5zM240 0q-7 0 -11.5 4.5t-4.5 11.5t4.5 11.5
t11.5 4.5t11.5 -4.5t4.5 -11.5t-4.5 -11.5t-11.5 -4.5zM240 96q-7 0 -11.5 4.5t-4.5 11.5t4.5 11.5t11.5 4.5t11.5 -4.5t4.5 -11.5t-4.5 -11.5t-11.5 -4.5zM304 64q-7 0 -11.5 4.5t-4.5 11.5t4.5 11.5t11.5 4.5t11.5 -4.5t4.5 -11.5t-4.5 -11.5t-11.5 -4.5zM336 0
q-7 0 -11.5 4.5t-4.5 11.5t4.5 11.5t11.5 4.5t11.5 -4.5t4.5 -11.5t-4.5 -11.5t-11.5 -4.5zM368 128q-7 0 -11.5 4.5t-4.5 11.5t4.5 11.5t11.5 4.5t11.5 -4.5t4.5 -11.5t-4.5 -11.5t-11.5 -4.5z" />
    <glyph glyph-name="american-sign-language-interpreting" unicode="&#xf2a3;" horiz-adv-x="640" 
d="M291 259q-16 7 -33 8t-32 -4q31 0 52.5 -13.5t32.5 -37.5q7 -13 -1 -25.5t-22 -12.5q14 0 22 -12.5t1 -25.5q-11 -23 -32.5 -37t-47.5 -14l-94 9l-67 -33q-7 -4 -14 -1.5t-10 8.5l-44 89q-3 7 -1 13.5t8 10.5l58 33l41 74q5 43 25.5 81t54.5 66q8 7 19 6t18 -9.5t6 -19.5
t-9 -18q-20 -17 -33 -36q34 23 74 28q11 2 20 -5t10.5 -18t-5.5 -19.5t-18 -10.5q-23 -2 -44 -15q20 5 43.5 2t44.5 -13q10 -5 13.5 -15.5t-1.5 -20.5t-15.5 -13.5t-19.5 1.5zM263 189q-4 10 -13 15.5t-19 5.5q-15 0 -25.5 -10.5t-10 -25.5t11 -25t24.5 -10q10 0 19 5.5
t13 14.5q4 7 10 11t14 4q-8 0 -14 4.5t-10 10.5zM638 227q3 -7 1 -13.5t-8 -10.5l-58 -33l-41 -74q-5 -43 -25.5 -81t-54.5 -66q-8 -7 -19 -6t-18 9.5t-6 19.5t9 18q20 17 33 36q-34 -23 -74 -28q-9 -2 -19 4.5t-11.5 18t5.5 20t18 10.5q23 2 44 15q-20 -5 -43.5 -2
t-44.5 13q-10 5 -13.5 15.5t1.5 20.5t15.5 13.5t19.5 -1.5q16 -8 33 -8.5t32 4.5q-31 0 -52.5 13.5t-32.5 37.5q-7 13 1 25.5t22 12.5q-14 0 -22 12.5t-1 25.5q11 23 32.5 37t49.5 14l92 -9l67 33q7 4 14 1.5t10 -8.5zM409 245q-10 0 -19 -5.5t-13 -14.5q-4 -7 -10 -11
t-14 -4q8 0 14 -4.5t10 -11.5q4 -9 13 -14.5t19 -5.5q15 0 25.5 10.5t10 25.5t-11 25t-24.5 10z" />
    <glyph glyph-name="analytics" unicode="&#xf643;" horiz-adv-x="576" 
d="M511 355q8 -3 17 -3q20 0 34 14t14 34t-14 34t-34 14t-34 -14t-14 -34l1 -7l-96 -76q-8 3 -17 3t-17 -3l-96 76l1 7q0 20 -14 34t-34 14t-34 -14t-14 -34q0 -6 2 -12l-102 -102q-6 2 -12 2q-20 0 -34 -14t-14 -34t14 -34t34 -14t34 14t14 34q0 6 -2 12l102 102
q6 -2 12 -2q9 0 17 3l96 -76l-1 -7q0 -20 14 -34t34 -14t34 14t14 34l-1 7zM400 128h-64q-7 0 -11.5 -4.5t-4.5 -11.5v-160q0 -7 4.5 -11.5t11.5 -4.5h64q7 0 11.5 4.5t4.5 11.5v160q0 7 -4.5 11.5t-11.5 4.5zM560 256h-64q-7 0 -11.5 -4.5t-4.5 -11.5v-288q0 -7 4.5 -11.5
t11.5 -4.5h64q7 0 11.5 4.5t4.5 11.5v288q0 7 -4.5 11.5t-11.5 4.5zM240 256h-64q-7 0 -11.5 -4.5t-4.5 -11.5v-288q0 -7 4.5 -11.5t11.5 -4.5h64q7 0 11.5 4.5t4.5 11.5v288q0 7 -4.5 11.5t-11.5 4.5zM80 96h-64q-7 0 -11.5 -4.5t-4.5 -11.5v-128q0 -7 4.5 -11.5t11.5 -4.5
h64q7 0 11.5 4.5t4.5 11.5v128q0 7 -4.5 11.5t-11.5 4.5z" />
    <glyph glyph-name="anchor" unicode="&#xf13d;" horiz-adv-x="576" 
d="M13 96h32q11 -49 49 -87q36 -35 88 -54t106 -19t106 19t88 54q38 38 49 87h32q8 0 11 7.5t-2 12.5l-68 68q-3 3 -8 3t-8 -3l-68 -68q-5 -5 -2 -12.5t11 -7.5h35q-14 -39 -57 -65q-39 -23 -87 -29v190h52q5 0 8.5 3.5t3.5 8.5v40q0 5 -3.5 8.5t-8.5 3.5h-52v5q28 10 46 35
t18 56q0 39 -27.5 67t-67.5 29t-68.5 -27.5t-28.5 -68.5q0 -31 18 -56t46 -35v-5h-52q-5 0 -8.5 -3.5t-3.5 -8.5v-40q0 -5 3.5 -8.5t8.5 -3.5h52v-190q-48 6 -87 29q-43 26 -57 65h35q8 0 11 7.5t-2 12.5l-68 68q-3 3 -8 3t-8 -3l-68 -68q-5 -5 -2 -12.5t11 -7.5zM288 384
q13 0 22.5 -9.5t9.5 -22.5t-9.5 -22.5t-22.5 -9.5t-22.5 9.5t-9.5 22.5t9.5 22.5t22.5 9.5z" />
    <glyph glyph-name="angel" unicode="&#xf779;" horiz-adv-x="576" 
d="M208 304q0 -33 23.5 -56.5t56.5 -23.5t56.5 23.5t23.5 56.5t-23.5 56.5t-56.5 23.5t-56.5 -23.5t-23.5 -56.5zM185 347q5 13 16 27q-9 6 -9 10.5t12 12t32 12.5q24 7 52 7t52 -7q20 -5 32 -12.5t12 -12t-9 -10.5q11 -14 17 -27q24 17 24 37q0 17 -17 32t-46.5 23.5
t-64.5 8.5t-64.5 -8.5t-46.5 -23.5t-17 -32q0 -20 25 -37zM572 -5l-38 79q-5 10 -5 21t5 22t12 22q8 14 10 23q4 11 4 30q0 25 -14 47t-37 35.5t-49 13.5q-19 0 -36.5 -7.5t-30.5 -20.5l-72 -73q-17 5 -33 5t-32 -5l-73 73q-13 13 -30.5 20.5t-35.5 7.5q-27 0 -50 -13.5
t-37 -35.5t-14 -47q0 -19 4 -30q2 -9 11 -23l11 -22t5 -21.5t-5 -21.5l-38 -79q-5 -10 -4 -20.5t6.5 -19.5t14.5 -14t19 -5h496q10 0 19 5t14.5 14t6.5 19.5t-4 20.5zM195 135l-75 -151h-68l34 69q9 20 9 42.5t-9 42.5q-6 11 -14 24v1q-6 9 -7 13.5t-1 15.5q0 19 16 33.5
t35.5 14.5t33.5 -14l65 -65q-12 -12 -19 -26zM456 -16l-75 151q-7 14 -19 26l66 65q13 14 32.5 14t35.5 -14.5t16 -33.5q0 -11 -1 -15.5t-7 -13.5q-7 -13 -14 -25q-9 -20 -9 -42.5t9 -42.5l34 -69h-68z" />
    <glyph glyph-name="angle-double-down" unicode="&#xf103;" horiz-adv-x="320" 
d="M143 192l-136 136q-7 7 -7 17t7 17l23 22q7 7 17 7t17 -7l96 -96l96 96q7 7 17 7t17 -7l23 -22q7 -7 7 -17t-7 -17l-136 -136q-7 -7 -17 -7t-17 7zM177 0l136 136q7 7 7 17t-7 17l-23 22q-7 7 -17 7t-16 -7l-97 -96l-96 96q-7 7 -17 7t-17 -7l-23 -22q-7 -7 -7 -17t7 -17
l136 -136q7 -7 17 -7t17 7z" />
    <glyph glyph-name="angle-double-left" unicode="&#xf100;" horiz-adv-x="448" 
d="M224 209l136 136q7 7 17 7t17 -7l22 -23q7 -7 7 -17t-7 -16l-96 -97l96 -96q7 -7 7 -17t-7 -17l-22 -23q-7 -7 -17 -7t-17 7l-136 136q-7 7 -7 17t7 17zM32 175l136 -136q7 -7 17 -7t17 7l22 23q7 7 7 17t-7 17l-96 96l96 96q7 7 7 17t-7 17l-22 23q-7 7 -17 7t-17 -7
l-136 -136q-7 -7 -7 -17t7 -17z" />
    <glyph glyph-name="angle-double-right" unicode="&#xf101;" horiz-adv-x="448" 
d="M224 175l-136 -136q-7 -7 -17 -7t-17 7l-22 23q-7 7 -7 17t7 17l96 96l-96 96q-7 7 -7 17t7 17l22 23q7 7 17 7t17 -7l136 -136q7 -7 7 -17t-7 -17zM416 209l-136 136q-7 7 -17 7t-17 -7l-22 -23q-7 -7 -7 -17t7 -16l96 -97l-96 -96q-7 -7 -7 -17t7 -17l22 -23
q7 -7 17 -7t17 7l136 136q7 7 7 17t-7 17z" />
    <glyph glyph-name="angle-double-up" unicode="&#xf102;" horiz-adv-x="320" 
d="M177 192l136 -136q7 -7 7 -17t-7 -17l-23 -22q-7 -7 -17 -7t-16 7l-97 96l-96 -96q-7 -7 -17 -7t-17 7l-23 22q-7 7 -7 17t7 17l136 136q7 7 17 7t17 -7zM143 384l-136 -136q-7 -7 -7 -17t7 -17l23 -22q7 -7 17 -7t17 7l96 96l96 -96q7 -7 17 -7t17 7l23 22q7 7 7 17
t-7 17l-136 136q-7 7 -17 7t-17 -7z" />
    <glyph glyph-name="angle-down" unicode="&#xf107;" horiz-adv-x="320" 
d="M143 96l-136 136q-7 7 -7 17t7 17l23 22q7 7 17 7t17 -7l96 -96l96 96q7 7 17 7t17 -7l23 -22q7 -7 7 -17t-7 -17l-136 -136q-7 -7 -17 -7t-17 7z" />
    <glyph glyph-name="angle-left" unicode="&#xf104;" horiz-adv-x="256" 
d="M32 209l136 136q7 7 17 7t17 -7l22 -23q7 -7 7 -17t-7 -16l-96 -97l96 -96q7 -7 7 -17t-7 -17l-22 -23q-7 -7 -17 -7t-17 7l-136 136q-7 7 -7 17t7 17z" />
    <glyph glyph-name="angle-right" unicode="&#xf105;" horiz-adv-x="256" 
d="M224 175l-136 -136q-7 -7 -17 -7t-17 7l-22 23q-7 7 -7 17t7 17l96 96l-96 96q-7 7 -7 17t7 17l22 23q7 7 17 7t17 -7l136 -136q7 -7 7 -17t-7 -17z" />
    <glyph glyph-name="angle-up" unicode="&#xf106;" horiz-adv-x="320" 
d="M177 288l136 -136q7 -7 7 -17t-7 -17l-23 -22q-7 -7 -17 -7t-16 7l-97 96l-96 -96q-7 -7 -17 -7t-17 7l-23 22q-7 7 -7 17t7 17l136 136q7 7 17 7t17 -7z" />
    <glyph glyph-name="apple-alt" unicode="&#xf5d1;" horiz-adv-x="448" 
d="M351 319q39 -7 64 -42q22 -31 30 -78q7 -43 -1 -86q-12 -71 -48 -119q-43 -58 -108 -58q-16 0 -35 10q-13 8 -29 8t-29 -8q-19 -10 -35 -10q-65 0 -108 58q-36 48 -48 119q-8 43 -1 86q8 47 30 78q25 35 64 42q24 4 66 -7q36 -10 61 -24q25 14 61 24q42 11 66 7zM296 360
q-14 -13 -37 -19q-16 -5 -35 -5l-15 1q-2 14 0 32q4 36 23 55q14 13 37 19q16 5 35 5l15 -1l1 -15q0 -19 -5 -35q-6 -23 -19 -37z" />
    <glyph glyph-name="apple-crate" unicode="&#xf6b1;" 
d="M318 256h160q5 36 -7 67q-14 38 -47 44q-13 3 -34.5 -2.5t-37.5 -14.5q-13 7 -30 12t-31 5l5 -6q15 -21 20 -52q5 -26 2 -53zM211 398q15 16 13 50q-34 2 -50 -14q-11 -10 -13 -29q-2 -12 0 -21q33 -2 50 14zM402 398q16 16 13 50q-33 2 -50 -14q-10 -10 -13 -29
q-1 -12 0 -21q34 -2 50 14zM286 256q5 36 -6 67q-14 38 -48 44q-13 3 -34.5 -2.5t-37.5 -14.5q-16 9 -37.5 14.5t-34.5 2.5q-33 -6 -48 -44q-11 -31 -6 -67h252zM496 224h-480q-7 0 -11.5 -4.5t-4.5 -11.5v-112h512v112q0 7 -4.5 11.5t-11.5 4.5zM64 144q-7 0 -11.5 4.5
t-4.5 11.5t4.5 11.5t11.5 4.5t11.5 -4.5t4.5 -11.5t-4.5 -11.5t-11.5 -4.5zM448 144q-7 0 -11.5 4.5t-4.5 11.5t4.5 11.5t11.5 4.5t11.5 -4.5t4.5 -11.5t-4.5 -11.5t-11.5 -4.5zM0 -48q0 -7 4.5 -11.5t11.5 -4.5h480q7 0 11.5 4.5t4.5 11.5v112h-512v-112zM448 16
q7 0 11.5 -4.5t4.5 -11.5t-4.5 -11.5t-11.5 -4.5t-11.5 4.5t-4.5 11.5t4.5 11.5t11.5 4.5zM64 16q7 0 11.5 -4.5t4.5 -11.5t-4.5 -11.5t-11.5 -4.5t-11.5 4.5t-4.5 11.5t4.5 11.5t11.5 4.5z" />
    <glyph glyph-name="archive" unicode="&#xf187;" 
d="M32 0q0 -13 9.5 -22.5t22.5 -9.5h384q13 0 22.5 9.5t9.5 22.5v288h-448v-288zM192 212q0 5 3.5 8.5t8.5 3.5h104q5 0 8.5 -3.5t3.5 -8.5v-8q0 -5 -3.5 -8.5t-8.5 -3.5h-104q-5 0 -8.5 3.5t-3.5 8.5v8zM480 416h-448q-13 0 -22.5 -9.5t-9.5 -22.5v-48q0 -7 4.5 -11.5
t11.5 -4.5h480q7 0 11.5 4.5t4.5 11.5v48q0 13 -9.5 22.5t-22.5 9.5z" />
    <glyph glyph-name="arrow-alt-circle-down" unicode="&#xf358;" 
d="M504 192q0 -67 -33.5 -124t-90.5 -90.5t-124 -33.5t-124 33.5t-90.5 90.5t-33.5 124t33.5 124t90.5 90.5t124 33.5t124 -33.5t90.5 -90.5t33.5 -124zM212 308v-116h-71q-8 0 -11 -7.5t3 -12.5l115 -115q3 -3 8 -3t8 3l115 115q6 5 3 12.5t-11 7.5h-71v116q0 5 -3.5 8.5
t-8.5 3.5h-64q-5 0 -8.5 -3.5t-3.5 -8.5z" />
    <glyph glyph-name="arrow-alt-circle-left" unicode="&#xf359;" 
d="M256 -56q-67 0 -124 33.5t-90.5 90.5t-33.5 124t33.5 124t90.5 90.5t124 33.5t124 -33.5t90.5 -90.5t33.5 -124t-33.5 -124t-90.5 -90.5t-124 -33.5zM372 236h-116v71q0 8 -7.5 11t-12.5 -3l-115 -114q-3 -4 -3 -9t3 -8l115 -115q5 -6 12.5 -3t7.5 11v71h116q5 0 8.5 3.5
t3.5 8.5v64q0 5 -3.5 8.5t-8.5 3.5z" />
    <glyph glyph-name="arrow-alt-circle-right" unicode="&#xf35a;" 
d="M256 440q67 0 124 -33.5t90.5 -90.5t33.5 -124t-33.5 -124t-90.5 -90.5t-124 -33.5t-124 33.5t-90.5 90.5t-33.5 124t33.5 124t90.5 90.5t124 33.5zM140 148h116v-71q0 -8 7.5 -11t13.5 3l114 115q3 3 3 8t-3 8l-114 115q-6 6 -13.5 3t-7.5 -11v-71h-116q-5 0 -8.5 -3.5
t-3.5 -8.5v-64q0 -5 3.5 -8.5t8.5 -3.5z" />
    <glyph glyph-name="arrow-alt-circle-up" unicode="&#xf35b;" 
d="M8 192q0 67 33.5 124t90.5 90.5t124 33.5t124 -33.5t90.5 -90.5t33.5 -124t-33.5 -124t-90.5 -90.5t-124 -33.5t-124 33.5t-90.5 90.5t-33.5 124zM300 76v116h71q8 0 11 7.5t-3 13.5l-114 114q-4 3 -9 3t-8 -3l-115 -114q-6 -6 -3 -13.5t11 -7.5h71v-116q0 -5 3.5 -8.5
t8.5 -3.5h64q5 0 8.5 3.5t3.5 8.5z" />
    <glyph glyph-name="arrow-alt-down" unicode="&#xf354;" horiz-adv-x="448" 
d="M176 416h96q10 0 17 -7t7 -17v-200h104q10 0 17 -7t7 -17t-7 -17l-176 -176q-7 -7 -17 -7t-17 7l-176 176q-7 7 -7 17t7 17t17 7h104v200q0 10 7 17t17 7z" />
    <glyph glyph-name="arrow-alt-from-bottom" unicode="&#xf346;" horiz-adv-x="384" 
d="M360 -32h-336q-10 0 -17 7t-7 17v24q0 10 7 17t17 7h336q10 0 17 -7t7 -17v-24q0 -10 -7 -17t-17 -7zM256 88v136h88q13 0 18 12.5t-4 21.5l-152 152q-6 6 -14 6t-14 -6l-152 -152q-9 -9 -4 -21.5t18 -12.5h88v-136q0 -10 7 -17t17 -7h80q10 0 17 7t7 17z" />
    <glyph glyph-name="arrow-alt-from-left" unicode="&#xf347;" horiz-adv-x="448" 
d="M0 24v336q0 10 7 17t17 7h24q10 0 17 -7t7 -17v-336q0 -10 -7 -17t-17 -7h-24q-10 0 -17 7t-7 17zM120 128h136v-88q0 -13 12.5 -18t21.5 4l152 152q6 6 6 14t-6 14l-152 152q-9 9 -21.5 4t-12.5 -18v-88h-136q-10 0 -17 -7t-7 -17v-80q0 -10 7 -17t17 -7z" />
    <glyph glyph-name="arrow-alt-from-right" unicode="&#xf348;" horiz-adv-x="448" 
d="M448 360v-336q0 -10 -7 -17t-17 -7h-24q-10 0 -17 7t-7 17v336q0 10 7 17t17 7h24q10 0 17 -7t7 -17zM328 256h-136v88q0 13 -12.5 18t-21.5 -4l-152 -152q-6 -6 -6 -14t6 -14l152 -152q9 -9 21.5 -4t12.5 18v88h136q10 0 17 7t7 17v80q0 10 -7 17t-17 7z" />
    <glyph glyph-name="arrow-alt-from-top" unicode="&#xf349;" horiz-adv-x="384" 
d="M24 416h336q10 0 17 -7t7 -17v-24q0 -10 -7 -17t-17 -7h-336q-10 0 -17 7t-7 17v24q0 10 7 17t17 7zM128 296v-136h-88q-13 0 -18 -12.5t4 -21.5l152 -152q6 -6 14 -6t14 6l152 152q9 9 4 21.5t-18 12.5h-88v136q0 10 -7 17t-17 7h-80q-10 0 -17 -7t-7 -17z" />
    <glyph glyph-name="arrow-alt-left" unicode="&#xf355;" horiz-adv-x="448" 
d="M448 240v-96q0 -10 -7 -17t-17 -7h-200v-104q0 -10 -7 -17t-17 -7t-17 7l-176 176q-7 7 -7 17t7 17l176 176q7 7 17 7t17 -7t7 -17v-104h200q10 0 17 -7t7 -17z" />
    <glyph glyph-name="arrow-alt-right" unicode="&#xf356;" horiz-adv-x="448" 
d="M0 144v96q0 10 7 17t17 7h200v104q0 10 7 17t17 7t17 -7l176 -176q7 -7 7 -17t-7 -17l-176 -176q-7 -7 -17 -7t-17 7t-7 17v104h-200q-10 0 -17 7t-7 17z" />
    <glyph glyph-name="arrow-alt-square-down" unicode="&#xf350;" horiz-adv-x="448" 
d="M448 368v-352q0 -20 -14 -34t-34 -14h-352q-20 0 -34 14t-14 34v352q0 20 14 34t34 14h352q20 0 34 -14t14 -34zM180 308v-116h-71q-8 0 -11 -7.5t3 -12.5l115 -115q3 -3 8 -3t8 3l115 115q6 5 3 12.5t-11 7.5h-71v116q0 5 -3.5 8.5t-8.5 3.5h-64q-5 0 -8.5 -3.5
t-3.5 -8.5z" />
    <glyph glyph-name="arrow-alt-square-left" unicode="&#xf351;" horiz-adv-x="448" 
d="M400 -32h-352q-20 0 -34 14t-14 34v352q0 20 14 34t34 14h352q20 0 34 -14t14 -34v-352q0 -20 -14 -34t-34 -14zM340 236h-116v71q0 8 -7.5 11t-12.5 -3l-115 -114q-3 -4 -3 -9t3 -8l115 -115q5 -6 12.5 -3t7.5 11v71h116q5 0 8.5 3.5t3.5 8.5v64q0 5 -3.5 8.5t-8.5 3.5z
" />
    <glyph glyph-name="arrow-alt-square-right" unicode="&#xf352;" horiz-adv-x="448" 
d="M48 416h352q20 0 34 -14t14 -34v-352q0 -20 -14 -34t-34 -14h-352q-20 0 -34 14t-14 34v352q0 20 14 34t34 14zM108 148h116v-71q0 -8 7.5 -11t13.5 3l114 115q3 3 3 8t-3 8l-114 115q-6 6 -13.5 3t-7.5 -11v-71h-116q-5 0 -8.5 -3.5t-3.5 -8.5v-64q0 -5 3.5 -8.5
t8.5 -3.5z" />
    <glyph glyph-name="arrow-alt-square-up" unicode="&#xf353;" horiz-adv-x="448" 
d="M0 16v352q0 20 14 34t34 14h352q20 0 34 -14t14 -34v-352q0 -20 -14 -34t-34 -14h-352q-20 0 -34 14t-14 34zM268 76v116h71q8 0 11 7.5t-3 13.5l-114 114q-4 3 -9 3t-8 -3l-115 -114q-6 -6 -3 -13.5t11 -7.5h71v-116q0 -5 3.5 -8.5t8.5 -3.5h64q5 0 8.5 3.5t3.5 8.5z
" />
    <glyph glyph-name="arrow-alt-to-bottom" unicode="&#xf34a;" horiz-adv-x="384" 
d="M360 -32h-336q-10 0 -17 7t-7 17v24q0 10 7 17t17 7h336q10 0 17 -7t7 -17v-24q0 -10 -7 -17t-17 -7zM128 392v-136h-88q-13 0 -18 -12.5t4 -21.5l152 -152q6 -6 14 -6t14 6l152 152q9 9 4 21.5t-18 12.5h-88v136q0 10 -7 17t-17 7h-80q-10 0 -17 -7t-7 -17z" />
    <glyph glyph-name="arrow-alt-to-left" unicode="&#xf34b;" horiz-adv-x="448" 
d="M0 24v336q0 10 7 17t17 7h24q10 0 17 -7t7 -17v-336q0 -10 -7 -17t-17 -7h-24q-10 0 -17 7t-7 17zM424 256h-136v88q0 13 -12.5 18t-21.5 -4l-152 -152q-6 -6 -6 -14t6 -14l152 -152q9 -9 21.5 -4t12.5 18v88h136q10 0 17 7t7 17v80q0 10 -7 17t-17 7z" />
    <glyph glyph-name="arrow-alt-to-right" unicode="&#xf34c;" horiz-adv-x="448" 
d="M448 360v-336q0 -10 -7 -17t-17 -7h-24q-10 0 -17 7t-7 17v336q0 10 7 17t17 7h24q10 0 17 -7t7 -17zM24 128h136v-88q0 -13 12.5 -18t21.5 4l152 152q6 6 6 14t-6 14l-152 152q-9 9 -21.5 4t-12.5 -18v-88h-136q-10 0 -17 -7t-7 -17v-80q0 -10 7 -17t17 -7z" />
    <glyph glyph-name="arrow-alt-to-top" unicode="&#xf34d;" horiz-adv-x="384" 
d="M24 416h336q10 0 17 -7t7 -17v-24q0 -10 -7 -17t-17 -7h-336q-10 0 -17 7t-7 17v24q0 10 7 17t17 7zM256 -8v136h88q13 0 18 12.5t-4 21.5l-152 152q-6 6 -14 6t-14 -6l-152 -152q-9 -9 -4 -21.5t18 -12.5h88v-136q0 -10 7 -17t17 -7h80q10 0 17 7t7 17z" />
    <glyph glyph-name="arrow-alt-up" unicode="&#xf357;" horiz-adv-x="448" 
d="M272 -32h-96q-10 0 -17 7t-7 17v200h-104q-10 0 -17 7t-7 17t7 17l176 176q7 7 17 7t17 -7l176 -176q7 -7 7 -17t-7 -17t-17 -7h-104v-200q0 -10 -7 -17t-17 -7z" />
    <glyph glyph-name="arrow-circle-down" unicode="&#xf0ab;" 
d="M504 192q0 -67 -33.5 -124t-90.5 -90.5t-124 -33.5t-124 33.5t-90.5 90.5t-33.5 124t33.5 124t90.5 90.5t124 33.5t124 -33.5t90.5 -90.5t33.5 -124zM360 221l-72 -76v183q0 10 -7 17t-17 7h-16q-10 0 -17 -7t-7 -17v-183l-72 76q-7 7 -17.5 7t-17.5 -7l-11 -11
q-7 -7 -7 -17t7 -17l133 -132q7 -7 17 -7t17 7l133 132q7 7 7 17t-7 17l-11 11q-7 7 -17.5 7t-17.5 -7z" />
    <glyph glyph-name="arrow-circle-left" unicode="&#xf0a8;" 
d="M256 -56q-67 0 -124 33.5t-90.5 90.5t-33.5 124t33.5 124t90.5 90.5t124 33.5t124 -33.5t90.5 -90.5t33.5 -124t-33.5 -124t-90.5 -90.5t-124 -33.5zM285 88l-76 72h183q10 0 17 7t7 17v16q0 10 -7 17t-17 7h-183l76 72q7 7 7 17.5t-7 17.5l-11 11q-7 7 -17 7t-17 -7
l-132 -133q-7 -7 -7 -17t7 -17l132 -133q7 -7 17 -7t17 7l11 11q7 7 7 17.5t-7 17.5z" />
    <glyph glyph-name="arrow-circle-right" unicode="&#xf0a9;" 
d="M256 440q67 0 124 -33.5t90.5 -90.5t33.5 -124t-33.5 -124t-90.5 -90.5t-124 -33.5t-124 33.5t-90.5 90.5t-33.5 124t33.5 124t90.5 90.5t124 33.5zM227 296l76 -72h-183q-10 0 -17 -7t-7 -17v-16q0 -10 7 -17t17 -7h183l-76 -72q-7 -7 -7 -17.5t7 -17.5l11 -11
q7 -7 17 -7t17 7l132 133q7 7 7 17t-7 17l-132 133q-7 7 -17 7t-17 -7l-11 -11q-7 -7 -7 -17.5t7 -17.5z" />
    <glyph glyph-name="arrow-circle-up" unicode="&#xf0aa;" 
d="M8 192q0 67 33.5 124t90.5 90.5t124 33.5t124 -33.5t90.5 -90.5t33.5 -124t-33.5 -124t-90.5 -90.5t-124 -33.5t-124 33.5t-90.5 90.5t-33.5 124zM152 163l72 76v-183q0 -10 7 -17t17 -7h16q10 0 17 7t7 17v183l72 -76q7 -7 17.5 -7t17.5 7l11 11q7 7 7 17t-7 17
l-133 132q-7 7 -17 7t-17 -7l-133 -132q-7 -7 -7 -17t7 -17l11 -11q7 -7 17.5 -7t17.5 7z" />
    <glyph glyph-name="arrow-down" unicode="&#xf063;" horiz-adv-x="448" 
d="M413 226l22 -23q7 -7 7 -17t-7 -17l-194 -194q-7 -7 -17 -7t-17 7l-194 194q-7 7 -7 17t7 17l22 23q7 7 17 6.5t17 -7.5l115 -120v287q0 10 7 17t17 7h32q10 0 17 -7t7 -17v-287l115 120q7 7 17 7.5t17 -6.5z" />
    <glyph glyph-name="arrow-from-bottom" unicode="&#xf342;" horiz-adv-x="384" 
d="M360 -32h-336q-10 0 -17 7t-7 17v24q0 10 7 17t17 7h336q10 0 17 -7t7 -17v-24q0 -10 -7 -17t-17 -7zM90 232l66 65v-209q0 -10 7 -17t17 -7h24q10 0 17 7t7 17v209l66 -65q7 -8 17 -8t17 8l17 17q7 7 7 16.5t-7 16.5l-136 136q-7 7 -17 7t-17 -7l-135 -136q-8 -7 -8 -17
t7 -16l18 -17q7 -8 16.5 -8t16.5 8z" />
    <glyph glyph-name="arrow-from-left" unicode="&#xf343;" horiz-adv-x="448" 
d="M0 24v336q0 10 7 17t17 7h24q10 0 17 -7t7 -17v-336q0 -10 -7 -17t-17 -7h-24q-10 0 -17 7t-7 17zM255 294l65 -66h-200q-10 0 -17 -7t-7 -17v-24q0 -10 7 -17t17 -7h200l-65 -66q-8 -7 -8 -17t8 -17l17 -16q7 -8 16.5 -8t16.5 7l136 136q7 7 7 17t-7 17l-135 136
q-8 7 -17.5 7t-16.5 -7l-17 -17q-7 -8 -7 -17.5t7 -16.5z" />
    <glyph glyph-name="arrow-from-right" unicode="&#xf344;" horiz-adv-x="448" 
d="M448 360v-336q0 -10 -7 -17t-17 -7h-24q-10 0 -17 7t-7 17v336q0 10 7 17t17 7h24q10 0 17 -7t7 -17zM194 90l-66 66h200q10 0 17 7t7 17v24q0 10 -7 17t-17 7h-200l66 66q7 7 7 17t-8 16l-16 18q-8 7 -17.5 7t-16.5 -7l-136 -136q-7 -7 -7 -17t7 -17l136 -135
q7 -7 16.5 -7t16.5 7l17 17q7 7 7 16.5t-7 16.5h1z" />
    <glyph glyph-name="arrow-from-top" unicode="&#xf345;" horiz-adv-x="384" 
d="M24 416h336q10 0 17 -7t7 -17v-24q0 -10 -7 -17t-17 -7h-336q-10 0 -17 7t-7 17v24q0 10 7 17t17 7zM294 153l-66 -66v209q0 10 -7 17t-17 7h-24q-10 0 -17 -7t-7 -17v-209l-66 66q-7 7 -17 7t-17 -8l-16 -16q-8 -8 -8 -17.5t7 -16.5l136 -136q7 -7 17 -7t17 7l135 136
q7 7 7 17t-7 17l-17 17q-7 7 -16.5 7t-16.5 -8v1z" />
    <glyph glyph-name="arrow-left" unicode="&#xf060;" horiz-adv-x="448" 
d="M258 3l-23 -22q-7 -7 -17 -7t-17 7l-194 194q-7 7 -7 17t7 17l194 194q7 7 17 7t17 -7l23 -22q7 -7 6.5 -17t-7.5 -17l-120 -115h287q10 0 17 -7t7 -17v-32q0 -10 -7 -17t-17 -7h-287l120 -115q7 -7 7.5 -17t-6.5 -17z" />
    <glyph glyph-name="arrow-right" unicode="&#xf061;" horiz-adv-x="448" 
d="M191 381l22 22q7 7 17 7t17 -7l194 -194q7 -7 7 -17t-7 -17l-194 -194q-7 -7 -17 -7t-17 7l-22 22q-8 7 -7.5 17t7.5 17l120 115h-287q-10 0 -17 7t-7 17v32q0 10 7 17t17 7h287l-120 115q-7 7 -7.5 17t7.5 17z" />
    <glyph glyph-name="arrow-square-down" unicode="&#xf339;" horiz-adv-x="448" 
d="M448 368v-352q0 -20 -14 -34t-34 -14h-352q-20 0 -34 14t-14 34v352q0 20 14 34t34 14h352q20 0 34 -14t14 -34zM328 221l-72 -76v183q0 10 -7 17t-17 7h-16q-10 0 -17 -7t-7 -17v-183l-72 76q-7 7 -17.5 7t-17.5 -7l-11 -11q-7 -7 -7 -17t7 -17l133 -132q7 -7 17 -7
t17 7l133 132q7 7 7 17t-7 17l-11 11q-7 7 -17.5 7t-17.5 -7z" />
    <glyph glyph-name="arrow-square-left" unicode="&#xf33a;" horiz-adv-x="448" 
d="M400 -32h-352q-20 0 -34 14t-14 34v352q0 20 14 34t34 14h352q20 0 34 -14t14 -34v-352q0 -20 -14 -34t-34 -14zM253 88l-76 72h183q10 0 17 7t7 17v16q0 10 -7 17t-17 7h-183l76 72q7 7 7 17.5t-7 17.5l-11 11q-7 7 -17 7t-17 -7l-132 -133q-7 -7 -7 -17t7 -17l132 -133
q7 -7 17 -7t17 7l11 11q7 7 7 17.5t-7 17.5z" />
    <glyph glyph-name="arrow-square-right" unicode="&#xf33b;" horiz-adv-x="448" 
d="M48 416h352q20 0 34 -14t14 -34v-352q0 -20 -14 -34t-34 -14h-352q-20 0 -34 14t-14 34v352q0 20 14 34t34 14zM195 296l76 -72h-183q-10 0 -17 -7t-7 -17v-16q0 -10 7 -17t17 -7h183l-76 -72q-7 -7 -7 -17.5t7 -17.5l11 -11q7 -7 17 -7t17 7l132 133q7 7 7 17t-7 17
l-132 133q-7 7 -17 7t-17 -7l-11 -11q-7 -7 -7 -17.5t7 -17.5z" />
    <glyph glyph-name="arrow-square-up" unicode="&#xf33c;" horiz-adv-x="448" 
d="M0 16v352q0 20 14 34t34 14h352q20 0 34 -14t14 -34v-352q0 -20 -14 -34t-34 -14h-352q-20 0 -34 14t-14 34zM120 163l72 76v-183q0 -10 7 -17t17 -7h16q10 0 17 7t7 17v183l72 -76q7 -7 17.5 -7t17.5 7l11 11q7 7 7 17t-7 17l-133 132q-7 7 -17 7t-17 -7l-133 -132
q-7 -7 -7 -17t7 -17l11 -11q7 -7 17.5 -7t17.5 7z" />
    <glyph glyph-name="arrow-to-bottom" unicode="&#xf33d;" horiz-adv-x="384" 
d="M360 -32h-336q-10 0 -17 7t-7 17v24q0 10 7 17t17 7h336q10 0 17 -7t7 -17v-24q0 -10 -7 -17t-17 -7zM294 249l-66 -66v209q0 10 -7 17t-17 7h-24q-10 0 -17 -7t-7 -17v-209l-66 66q-7 7 -17 7t-17 -8l-16 -16q-8 -8 -8 -17.5t7 -16.5l136 -136q7 -7 17 -7t17 7l135 136
q7 7 7 17t-7 17l-17 17q-7 7 -16.5 7t-16.5 -7z" />
    <glyph glyph-name="arrow-to-left" unicode="&#xf33e;" horiz-adv-x="448" 
d="M0 24v336q0 10 7 17t17 7h24q10 0 17 -7t7 -17v-336q0 -10 -7 -17t-17 -7h-24q-10 0 -17 7t-7 17zM281 90l-66 66h209q10 0 17 7t7 17v24q0 10 -7 17t-17 7h-209l66 66q7 7 7 17t-8 16l-16 18q-8 7 -17.5 7t-16.5 -7l-136 -136q-7 -7 -7 -17t7 -17l136 -135q7 -7 17 -7
t16 7l18 17q7 7 7 16.5t-8 16.5h1z" />
    <glyph glyph-name="arrow-to-right" unicode="&#xf340;" horiz-adv-x="448" 
d="M448 360v-336q0 -10 -7 -17t-17 -7h-24q-10 0 -17 7t-7 17v336q0 10 7 17t17 7h24q10 0 17 -7t7 -17zM168 294l65 -66h-209q-10 0 -17 -7t-7 -17v-24q0 -10 7 -17t17 -7h209l-65 -66q-8 -7 -8 -17t8 -17l17 -16q7 -8 16.5 -8t16.5 7l136 136q7 7 7 17t-7 17l-136 136
q-7 7 -17 7t-16 -7l-17 -17q-8 -8 -8 -17.5t8 -16.5z" />
    <glyph glyph-name="arrow-to-top" unicode="&#xf341;" horiz-adv-x="384" 
d="M24 416h336q10 0 17 -7t7 -17v-24q0 -10 -7 -17t-17 -7h-336q-10 0 -17 7t-7 17v24q0 10 7 17t17 7zM90 136l66 65v-209q0 -10 7 -17t17 -7h24q10 0 17 7t7 17v209l66 -65q7 -8 17 -8t17 8l17 17q7 7 7 16.5t-7 16.5l-136 136q-7 7 -17 7t-17 -7l-135 -136q-8 -7 -8 -17
t7 -16l18 -17q7 -8 16.5 -8t16.5 8z" />
    <glyph glyph-name="arrow-up" unicode="&#xf062;" horiz-adv-x="448" 
d="M35 159l-22 22q-7 7 -7 17t7 17l194 194q7 7 17 7t17 -7l194 -194q7 -7 7 -17t-7 -17l-22 -22q-7 -8 -17 -7.5t-17 7.5l-115 120v-287q0 -10 -7 -17t-17 -7h-32q-10 0 -17 7t-7 17v287l-115 -120q-7 -7 -17 -7.5t-17 7.5z" />
    <glyph glyph-name="arrows-alt-h" unicode="&#xf337;" 
d="M378 278v-46h-244v46q0 10 -7 17t-17 7t-17 -7l-86 -86q-7 -7 -7 -17t7 -17l86 -86q7 -7 17 -7t17 7t7 17v46h244v-46q0 -10 7 -17t17 -7t17 7l86 86q7 7 7 17t-7 17l-86 86q-7 7 -17 7t-17 -7t-7 -17z" />
    <glyph glyph-name="arrows-alt-v" unicode="&#xf338;" horiz-adv-x="256" 
d="M214 70h-46v244h46q10 0 17 7t7 17t-7 17l-86 86q-7 7 -17 7t-17 -7l-86 -86q-7 -7 -7 -17t7 -17t17 -7h46v-244h-46q-10 0 -17 -7t-7 -17t7 -17l86 -86q7 -7 17 -7t17 7l86 86q7 7 7 17t-7 17t-17 7z" />
    <glyph glyph-name="arrows-alt" unicode="&#xf0b2;" 
d="M352 22l-79 -79q-7 -7 -17 -7t-17 7l-79 79q-7 8 -7 17.5t7 16.5t17 7h51v101h-101v-51q0 -10 -7 -17t-16.5 -7t-17.5 7l-79 79q-7 7 -7 17t7 17l79 79q8 8 17.5 7.5t16.5 -7t7 -17.5v-51h101v101h-51q-11 0 -17.5 7t-7 16.5t7.5 17.5l79 79q7 7 17 7t17 -7l79 -79
q7 -8 7 -17.5t-7 -16.5t-17 -7h-51v-101h101v51q0 10 7 17t16.5 7t17.5 -7l79 -79q7 -7 7 -17t-7 -17l-79 -79q-8 -8 -17.5 -7.5t-16.5 7t-7 17.5v51h-101v-101h51q11 0 17.5 -7t7 -16.5t-7.5 -17.5z" />
    <glyph glyph-name="arrows-h" unicode="&#xf07e;" 
d="M106 160h300l-46 -44q-7 -7 -7.5 -17t7.5 -17l10 -11q7 -7 17 -7t17 7l99 98q9 10 9 23t-9 23l-99 98q-7 7 -17 7t-17 -7l-10 -11q-8 -7 -7.5 -17t7.5 -17l46 -44h-300l46 44q7 7 7.5 17t-7.5 17l-10 11q-7 7 -17 7t-17 -7l-99 -98q-9 -10 -9 -23t9 -23l99 -98
q7 -7 17 -7t17 7l10 11q8 7 7.5 17t-7.5 17z" />
    <glyph glyph-name="arrows-v" unicode="&#xf07d;" horiz-adv-x="256" 
d="M160 42v300l44 -46q7 -7 17 -7.5t17 7.5l11 10q7 7 7 17t-7 17l-98 99q-10 9 -23 9t-23 -9l-98 -99q-7 -7 -7 -17t7 -17l11 -10q7 -8 17 -7.5t17 7.5l44 46v-300l-44 46q-7 7 -17 7.5t-17 -7.5l-11 -10q-7 -7 -7 -17t7 -17l98 -99q10 -9 23 -9t23 9l98 99q7 7 7 17t-7 17
l-11 10q-7 8 -17 7.5t-17 -7.5z" />
    <glyph glyph-name="assistive-listening-systems" unicode="&#xf2a2;" 
d="M216 188q0 -12 -8 -20t-20 -8t-20 8t-8 20q0 33 23.5 56.5t56.5 23.5t56.5 -23.5t23.5 -56.5q0 -12 -8 -20t-20 -8t-20 8t-8 19t-7 18t-17 7t-17 -7t-7 -17zM240 364q-48 0 -88.5 -23.5t-64 -64t-23.5 -88.5q0 -12 8 -20t20 -8t20 8t8 20q0 33 16 60.5t43.5 43.5t60.5 16
t60.5 -16t43.5 -43.5t16 -60.5q0 -25 -11 -44q-7 -11 -25 -28.5t-25 -28.5q-11 -18 -11 -43v0q0 -22 -15 -37t-37 -15q-12 0 -20 -8t-8 -20t8 -20t20 -8q29 0 54 14.5t39.5 39.5t14.5 54q0 8 7 18q4 5 16 17q23 23 32 40q17 29 17 69q0 48 -23.5 88.5t-64 64t-88.5 23.5z
M160 128q-13 0 -22.5 -9.5t-9.5 -22.5t9.5 -22.5t22.5 -9.5t22.5 9.5t9.5 22.5t-9.5 22.5t-22.5 9.5zM32 0q-13 0 -22.5 -9.5t-9.5 -22.5t9.5 -22.5t22.5 -9.5t22.5 9.5t9.5 22.5t-9.5 22.5t-22.5 9.5zM512 188v5q-1 56 -24.5 107.5t-64.5 89.5t-95 56q-11 4 -21.5 -1
t-14 -16t1.5 -21.5t16 -14.5q64 -22 104.5 -77.5t41.5 -123.5v-4q0 -12 8 -20t20 -8t20 8t8 20zM153 9l-80 80l-34 -34l80 -80z" />
    <glyph glyph-name="asterisk" unicode="&#xf069;" 
d="M478 114l-142 78l142 78q9 5 11.5 14.5t-2.5 18.5l-19 34q-5 9 -15 11.5t-18 -3.5l-139 -84l3 162q1 11 -6 18t-18 7h-38q-11 0 -18 -7t-6 -18l3 -162l-139 84q-8 6 -18 3.5t-15 -11.5l-19 -34q-5 -9 -2.5 -18.5t11.5 -14.5l142 -78l-142 -78q-9 -5 -11.5 -14.5
t2.5 -18.5l19 -34q5 -9 15 -11.5t18 3.5l139 84l-3 -162q-1 -11 6 -18t18 -7h38q11 0 18 7t6 18l-3 162l139 -84q8 -6 18 -3.5t15 11.5l19 34q5 9 2.5 18.5t-11.5 14.5z" />
    <glyph glyph-name="at" unicode="&#xf1fa;" 
d="M256 440q-67 0 -124 -33.5t-90.5 -90.5t-33.5 -124t33.5 -124t90.5 -90.5t124 -33.5q74 0 135 40q9 6 11 16.5t-5 19.5l-10 12q-6 7 -15 8.5t-17 -3.5q-45 -29 -99 -29q-50 0 -92 25t-67 67t-25 92t25 92t67 67t92.5 25t92.5 -19t66 -54q25 -37 25 -87q0 -31 -15 -55
q-17 -26 -43 -29q-12 1 -15 9q-2 6 1 21l24 121q2 12 -5 20.5t-19 8.5h-45q-5 0 -9 -3.5t-4 -8.5v0q-18 22 -60 22q-37 0 -69 -19.5t-50.5 -54t-18.5 -78.5q0 -49 26 -77.5t70 -28.5q20 0 41 11t34 28q6 -23 28 -30q12 -4 43 -4v0q76 0 116 45q34 39 34 102q0 67 -34 119
q-32 49 -88.5 77t-125.5 28zM234 136q-16 0 -26 10.5t-10 29.5q0 32 19 54q17 19 40 19q17 0 26 -11t9 -31t-9 -38q-9 -15 -22.5 -24t-26.5 -9z" />
    <glyph glyph-name="atom" unicode="&#xf5d2;" horiz-adv-x="448" 
d="M413 192q28 39 34 74q4 30 -9 54q-11 20 -34 32q-32 16 -82 10q-17 40 -41 62q-26 24 -57 24t-57 -24q-24 -22 -41 -62q-50 6 -82 -10q-23 -12 -34 -32q-14 -24 -9 -54q6 -35 34 -74q-28 -39 -34 -74q-4 -30 9 -54q18 -33 63 -41q24 -4 53 -1v0q17 -40 41 -62
q26 -24 57 -24t57 24q24 22 41 62v0q29 -3 53 1q45 8 63 41q14 24 9 54q-6 35 -34 74zM63 96q-3 6 1 18.5t14 29.5q11 -10 22 -19q3 -20 7 -40q-18 -1 -29.5 2.5t-14.5 8.5zM100 259q-11 -9 -22 -19q-10 17 -14 29.5t-1 18t13 8.5t25 3h6q-4 -20 -7 -40zM224 384q7 0 16 -10
t18 -27q-16 -6 -34 -13q-18 7 -34 13q9 17 18 27t16 10zM224 0q-7 0 -16 10t-18 27q16 6 34 13q18 -7 34 -13q-9 -17 -18 -27t-16 -10zM287 157q-30 -21 -63 -37q-33 16 -63 37q-2 35 1 70q29 21 62 37q33 -16 62 -37q3 -35 1 -70zM385 96q-3 -5 -14.5 -8.5t-29.5 -2.5
q4 20 7 40q11 9 22 19q10 -17 14 -29.5t1 -18.5zM370 240q-11 10 -22 19q-3 20 -7 40h6q15 0 25 -3t13 -8.5t-1 -18t-14 -29.5zM224 224q-13 0 -22.5 -9.5t-9.5 -22.5t9.5 -22.5t22.5 -9.5t22.5 9.5t9.5 22.5t-9.5 22.5t-22.5 9.5z" />
    <glyph glyph-name="audio-description" unicode="&#xf29e;" 
d="M163 209l9 -30h-26l9 30l4 16zM329 241h-14v-98h14q23 0 35 12.5t12 36.5t-12.5 36.5t-34.5 12.5zM512 336v-288q0 -20 -14 -34t-34 -14h-416q-20 0 -34 14t-14 34v288q0 20 14 34t34 14h416q20 0 34 -14t14 -34zM245 112l-57 168q-2 8 -11 8h-36q-8 0 -11 -8l-57 -168
q-2 -6 1.5 -11t9.5 -5h29q4 0 7.5 2.5t4.5 6.5l8 30h52l8 -30q3 -9 12 -9h29q6 0 9.5 5t1.5 11zM430 192q0 45 -26.5 70.5t-72.5 25.5h-57q-5 0 -8.5 -3.5t-3.5 -8.5v-168q0 -5 3.5 -8.5t8.5 -3.5h57q46 0 72.5 26t26.5 70z" />
    <glyph glyph-name="award" unicode="&#xf559;" horiz-adv-x="384" 
d="M97 85l-3 3q-3 3 -4.5 4t-8.5 3l-9 2q-13 4 -25 14l-46 -112q-3 -8 2 -15t14 -7l52 2l37 -38q6 -6 14.5 -4.5t11.5 9.5l52 128q-17 -10 -35 -10q-30 0 -52 21zM383 -1l-46 112q-12 -10 -25 -14l-9 -2q-7 -2 -8.5 -3t-4.5 -4l-3 -3q-22 -21 -52 -21q-18 0 -35 10l52 -128
q3 -8 11.5 -9.5t14.5 4.5l37 38l52 -2q9 0 14 7t2 15zM263 108q9 10 14 12.5t17 5.5l8 2q10 3 17.5 11t10.5 18l2 5q4 16 6.5 20.5t13.5 16.5l4 4q8 8 10.5 18.5t0.5 20.5l-2 6q-4 16 -4 21t4 21l2 5q2 11 -0.5 21.5t-10.5 18.5l-4 4q-11 11 -13.5 15.5t-6.5 20.5l-2 6
q-3 10 -10.5 18t-17.5 11l-5 1q-16 4 -20.5 7t-15.5 14l-4 4q-8 8 -18.5 10.5t-20.5 0.5l-5 -2q-16 -4 -21 -4t-21 4l-5 2q-10 2 -20.5 -0.5t-18.5 -10.5l-4 -4q-11 -11 -15.5 -14t-20.5 -7l-5 -1q-10 -3 -17.5 -11t-10.5 -18l-2 -6q-4 -16 -6.5 -20.5t-13.5 -15.5l-4 -4
q-8 -8 -10.5 -18.5t-0.5 -21.5l2 -5q4 -16 4 -21t-4 -21l-2 -6q-2 -10 0.5 -20.5t10.5 -18.5l4 -4q11 -12 13.5 -16.5t6.5 -20.5l2 -5q3 -10 10.5 -18t17.5 -11l7 -2q13 -3 18 -5.5t14.5 -12.5t23.5 -11.5t26 5.5q9 6 21 6t21 -6q12 -7 26 -5.5t24 11.5zM98 272
q0 40 27.5 68t66.5 28t66.5 -28t27.5 -68t-27.5 -68t-66.5 -28t-66.5 28t-27.5 68z" />
    <glyph glyph-name="backward" unicode="&#xf04a;" 
d="M12 167l192 -160q9 -8 21.5 -7t21.5 10t9 22v320q0 13 -9 22t-21.5 10t-21.5 -7l-192 -160q-12 -10 -12 -25t11 -25h1zM268 167l192 -160q9 -8 21.5 -7t21.5 10t9 22v320q0 13 -9 22t-21.5 10t-21.5 -7l-192 -160q-12 -10 -12 -25t12 -25z" />
    <glyph glyph-name="ban" unicode="&#xf05e;" 
d="M256 440q-67 0 -124 -33.5t-90.5 -90.5t-33.5 -124t33.5 -124t90.5 -90.5t124 -33.5t124 33.5t90.5 90.5t33.5 124t-33.5 124t-90.5 90.5t-124 33.5zM386 322q32 -32 45 -73.5t6.5 -84.5t-30.5 -78l-257 257q35 24 78 30.5t84.5 -6.5t73.5 -45zM126 62q-32 32 -45 73.5
t-6.5 84.5t30.5 78l257 -257q-35 -24 -78 -30.5t-84.5 6.5t-73.5 45z" />
    <glyph glyph-name="barcode-alt" unicode="&#xf463;" horiz-adv-x="640" 
d="M592 448h-544q-20 0 -34 -14t-14 -34v-416q0 -20 14 -34t34 -14h544q20 0 34 14t14 34v416q0 20 -14 34t-34 14zM160 40q0 -3 -2.5 -5.5t-5.5 -2.5h-48q-3 0 -5.5 2.5t-2.5 5.5v304q0 3 2.5 5.5t5.5 2.5h48q3 0 5.5 -2.5t2.5 -5.5v-304zM224 40q0 -3 -2.5 -5.5t-5.5 -2.5
h-16q-3 0 -5.5 2.5t-2.5 5.5v304q0 3 2.5 5.5t5.5 2.5h16q3 0 5.5 -2.5t2.5 -5.5v-304zM288 40q0 -3 -2.5 -5.5t-5.5 -2.5h-16q-3 0 -5.5 2.5t-2.5 5.5v304q0 3 2.5 5.5t5.5 2.5h16q3 0 5.5 -2.5t2.5 -5.5v-304zM416 40q0 -3 -2.5 -5.5t-5.5 -2.5h-48q-3 0 -5.5 2.5
t-2.5 5.5v304q0 3 2.5 5.5t5.5 2.5h48q3 0 5.5 -2.5t2.5 -5.5v-304zM544 40q0 -3 -2.5 -5.5t-5.5 -2.5h-48q-3 0 -5.5 2.5t-2.5 5.5v304q0 3 2.5 5.5t5.5 2.5h48q3 0 5.5 -2.5t2.5 -5.5v-304z" />
    <glyph glyph-name="barcode" unicode="&#xf02a;" 
d="M0 0v384h18v-384h-18zM27 0v384h9v-384h-9zM54 0v384h9v-384h-9zM99 0v384h9v-384h-9zM135 0v384h18v-384h-18zM180 0v384h9v-384h-9zM198 0v384h9v-384h-9zM216 0v384h9v-384h-9zM251 0v384h18v-384h-18zM296 0v384h18v-384h-18zM332 0v384h18v-384h-18zM368 0v384h18
v-384h-18zM395 0v384h18v-384h-18zM440 0v384h27v-384h-27zM476 0v384h9v-384h-9zM494 0v384h18v-384h-18z" />
    <glyph glyph-name="bars" unicode="&#xf0c9;" horiz-adv-x="448" 
d="M16 316h416q7 0 11.5 4.5t4.5 11.5v40q0 7 -4.5 11.5t-11.5 4.5h-416q-7 0 -11.5 -4.5t-4.5 -11.5v-40q0 -7 4.5 -11.5t11.5 -4.5zM16 156h416q7 0 11.5 4.5t4.5 11.5v40q0 7 -4.5 11.5t-11.5 4.5h-416q-7 0 -11.5 -4.5t-4.5 -11.5v-40q0 -7 4.5 -11.5t11.5 -4.5zM16 -4
h416q7 0 11.5 4.5t4.5 11.5v40q0 7 -4.5 11.5t-11.5 4.5h-416q-7 0 -11.5 -4.5t-4.5 -11.5v-40q0 -7 4.5 -11.5t11.5 -4.5z" />
    <glyph glyph-name="bell-slash" unicode="&#xf1f6;" horiz-adv-x="640" 
d="M634 -10l-91 70l1 4q0 12 -9 22l-3 4q-23 24 -34 47q-18 40 -18 103q0 58 -36 101t-92 54v21q0 13 -9.5 22.5t-22.5 9.5t-22.5 -9.5t-9.5 -22.5v-21q-30 -6 -55 -22.5t-43 -39.5l-145 112q-5 4 -11.5 3t-10.5 -6l-20 -25q-4 -6 -3 -12.5t6 -10.5l589 -455q5 -4 11.5 -3
t10.5 6l20 25q4 6 3 12.5t-6 10.5zM157 196q-5 -41 -21 -71q-10 -16 -28 -36l-3 -3q-9 -10 -9 -22.5t9 -22t23 -9.5h242zM320 -64q26 0 45 18.5t19 45.5h-128q0 -27 19 -45.5t45 -18.5z" />
    <glyph glyph-name="bell" unicode="&#xf0f3;" horiz-adv-x="448" 
d="M224 -64q26 0 45 18.5t19 45.5h-128q0 -27 19 -45.5t45 -18.5zM439 86q-1 1 -3 4q-23 24 -34 47q-18 40 -18 103q0 58 -36 101t-92 54v21q0 13 -9.5 22.5t-22.5 9.5t-22.5 -9.5t-9.5 -22.5v-21q-56 -11 -92 -54t-36 -101q0 -63 -18 -103q-11 -23 -34 -47l-3 -4
q-9 -10 -9 -22.5t9 -22t23 -9.5h384q14 0 23 9.5t9 22t-9 22.5z" />
    <glyph glyph-name="blind" unicode="&#xf29d;" horiz-adv-x="384" 
d="M380 -63q-3 -2 -6 -1t-5 4l-125 206q8 3 13 10l126 -208q2 -3 1 -6t-4 -5zM143 134l-33 -90l36 -88q5 -12 17.5 -17.5t24.5 -0.5t17.5 17.5t0.5 24.5zM96 360q18 0 31 13t13 31t-13 31t-31 13t-31 -13t-13 -31t13 -31t31 -13zM251 191l-120 152q-7 9 -19 9v0h-32
q-12 0 -19 -9l-61 -79v-95q0 -11 7 -18t17 -7t17 7t7 17v80l16 20v-140l-54 -149q-5 -13 1 -25t18.5 -16.5t24.5 1.5t16 18l66 181v108l-31 39q-3 4 0 6t6 -1l102 -129q7 -8 16.5 -9t17.5 5t9 16t-5 18z" />
    <glyph glyph-name="blog" unicode="&#xf781;" 
d="M172 221q-11 2 -19.5 -5t-8.5 -19v-50q0 -7 4.5 -13t12.5 -9q14 -5 22.5 -17.5t8.5 -27.5q0 -20 -14 -34t-34 -14t-34 14t-14 34v248q0 10 -7 17t-17 7h-48q-10 0 -17 -7t-7 -17v-248q0 -44 24.5 -80t65 -53t85.5 -8q41 9 71 39t38.5 70.5t-4 77.5t-41.5 62.5t-67 32.5z
M209 448q-7 0 -12 -4.5t-5 -11.5v-32q0 -6 4.5 -10.5t10.5 -4.5q64 -4 117.5 -37t86.5 -87t37 -118q0 -6 4.5 -10.5t11.5 -4.5h32q7 0 11.5 5t4.5 12q-4 80 -45.5 148t-109.5 109.5t-148 45.5zM209 352q-7 1 -12 -4t-5 -12v-32q0 -6 4.5 -11t10.5 -5q57 -5 98.5 -46
t46.5 -99q0 -7 4.5 -11t11.5 -4h32q7 0 11.5 5t4.5 12q-4 55 -32.5 100.5t-74 74t-100.5 32.5z" />
    <glyph glyph-name="bold" unicode="&#xf032;" horiz-adv-x="384" 
d="M305 204q25 14 39 39.5t14 56.5q0 36 -18 64t-50 40q-18 7 -38 10q-17 2 -42 2h-186q-7 0 -11.5 -4.5t-4.5 -11.5v-33q0 -7 4.5 -11.5t11.5 -4.5h33v-319h-33q-7 0 -11.5 -4.5t-4.5 -11.5v-32q0 -7 4.5 -11.5t11.5 -4.5h196q40 0 67 8q39 11 64 44.5t25 77.5q0 39 -19 67
t-52 39zM142 347h68q23 0 37 -7q12 -6 18.5 -19t6.5 -30q0 -26 -14 -41.5t-39 -15.5h-77v113zM255 42q-12 -5 -32 -5h-81v129h85q29 0 46 -17t17 -46q0 -21 -9.5 -38t-25.5 -23z" />
    <glyph glyph-name="bolt" unicode="&#xf0e7;" horiz-adv-x="320" 
d="M296 288h-115l42 130q3 11 -4 20.5t-19 9.5h-144q-9 0 -16 -6t-8 -15l-32 -240q-1 -11 6 -19t18 -8h119l-46 -194q-3 -12 4 -21t19 -9q14 0 21 12l176 304q7 12 0 24t-21 12z" />
    <glyph glyph-name="bomb" unicode="&#xf1e2;" 
d="M441 360l-52 -52l26 -27q7 -7 7 -17t-7 -17l-17 -17q18 -41 18 -86q0 -56 -28 -104t-75.5 -76t-104.5 -28t-104.5 28t-75.5 75.5t-28 104.5t28 104.5t75.5 75.5t104.5 28q45 0 86 -18l17 17q7 7 17 7t17 -7l26 -26l52 52zM500 388h-24q-5 0 -8.5 -3.5t-3.5 -8.5t3.5 -8.5
t8.5 -3.5h24q5 0 8.5 3.5t3.5 8.5t-3.5 8.5t-8.5 3.5zM440 448q-5 0 -8.5 -3.5t-3.5 -8.5v-24q0 -5 3.5 -8.5t8.5 -3.5t8.5 3.5t3.5 8.5v24q0 5 -3.5 8.5t-8.5 3.5zM474 393l17 17q3 4 3 8.5t-3.5 8.5t-8.5 4t-8 -4l-17 -17q-4 -4 -4 -8.5t4 -8.5t8.5 -4t8.5 4zM406 393
q4 -4 9 -4t8.5 4t3.5 8.5t-4 8.5l-17 17q-3 4 -8 4t-8.5 -4t-3.5 -8.5t3 -8.5zM474 359q-4 4 -9 4t-8.5 -4t-3.5 -8.5t4 -8.5l17 -17q3 -4 8 -4t8.5 4t3.5 8.5t-3 8.5zM112 176q0 26 19 45t45 19q7 0 11.5 4.5t4.5 11.5t-4.5 11.5t-11.5 4.5q-40 0 -68 -28t-28 -68
q0 -7 4.5 -11.5t11.5 -4.5t11.5 4.5t4.5 11.5z" />
    <glyph glyph-name="book-dead" unicode="&#xf6b7;" horiz-adv-x="448" 
d="M272 312q7 0 11.5 4.5t4.5 11.5t-4.5 11.5t-11.5 4.5t-11.5 -4.5t-4.5 -11.5t4.5 -11.5t11.5 -4.5zM448 90v332q0 12 -7 19t-19 7h-326q-41 0 -68.5 -27.5t-27.5 -68.5v-320q0 -41 27.5 -68.5t68.5 -27.5h326q11 0 18.5 7t7.5 19v16q0 9 -10 19q-2 12 -2 38t2 35
q10 5 10 20zM240 392q33 0 56.5 -18.5t23.5 -45.5q0 -15 -8.5 -28.5t-23.5 -22.5v-13q0 -7 -4.5 -11.5t-11.5 -4.5h-64q-7 0 -11.5 4.5t-4.5 11.5v13q-15 9 -23.5 22.5t-8.5 28.5q0 27 23.5 45.5t56.5 18.5zM129 214q-3 1 -4 4.5t0 6.5l6 14q1 3 4.5 4.5t6.5 0.5l98 -43
l98 43q3 1 6.5 -0.5t4.5 -4.5l6 -14q1 -3 0 -6.5t-4 -4.5l-70 -30l70 -30q3 -1 4 -4.5t0 -6.5l-6 -14q-1 -3 -4.5 -4.5t-6.5 -0.5l-98 43l-98 -43q-3 -1 -6.5 0.5t-4.5 4.5l-6 14q-1 3 0 6.5t4 4.5l70 30zM381 0h-285q-14 0 -23 9t-9 23t9.5 23t22.5 9h285v-64zM208 312
q7 0 11.5 4.5t4.5 11.5t-4.5 11.5t-11.5 4.5t-11.5 -4.5t-4.5 -11.5t4.5 -11.5t11.5 -4.5z" />
    <glyph glyph-name="book-open" unicode="&#xf518;" horiz-adv-x="576" 
d="M542 416q-59 -3 -111 -14q-75 -15 -120 -42q-7 -4 -7 -13v-364q0 -8 7.5 -12.5t15.5 -0.5q46 23 117 35q48 9 102 12q13 0 21.5 9t8.5 21v338q0 14 -10 23t-24 8zM265 360q-45 27 -120 42q-52 11 -111 14q-14 1 -24 -8t-10 -23v-338q0 -12 8.5 -21t21.5 -9q54 -3 102 -12
q71 -12 117 -35q8 -4 15.5 0.5t7.5 12.5v364q0 9 -7 13z" />
    <glyph glyph-name="book" unicode="&#xf02d;" horiz-adv-x="448" 
d="M448 88v336q0 10 -7 17t-17 7h-328q-40 0 -68 -28t-28 -68v-320q0 -40 28 -68t68 -28h328q10 0 17 7t7 17v16q0 11 -9 19q-3 11 -3 37t3 37q9 7 9 19zM128 314q0 2 2 4t4 2h212q2 0 4 -2t2 -4v-20q0 -2 -2 -4t-4 -2h-212q-2 0 -4 2t-2 4v20zM128 250q0 2 2 4t4 2h212
q2 0 4 -2t2 -4v-20q0 -2 -2 -4t-4 -2h-212q-2 0 -4 2t-2 4v20zM381 0h-285q-13 0 -22.5 9.5t-9.5 22.5t9.5 22.5t22.5 9.5h285q-1 -13 -1 -32t1 -32z" />
    <glyph glyph-name="bookmark" unicode="&#xf02e;" horiz-adv-x="384" 
d="M0 -64v464q0 20 14 34t34 14h288q20 0 34 -14t14 -34v-464l-192 112z" />
    <glyph glyph-name="bowling-ball" unicode="&#xf436;" horiz-adv-x="496" 
d="M248 440q-67 0 -124 -33.5t-90.5 -90.5t-33.5 -124t33.5 -124t90.5 -90.5t124 -33.5t124 33.5t90.5 90.5t33.5 124t-33.5 124t-90.5 90.5t-124 33.5zM120 256q-13 0 -22.5 9.5t-9.5 22.5t9.5 22.5t22.5 9.5t22.5 -9.5t9.5 -22.5t-9.5 -22.5t-22.5 -9.5zM184 352
q0 13 9.5 22.5t22.5 9.5t22.5 -9.5t9.5 -22.5t-9.5 -22.5t-22.5 -9.5t-22.5 9.5t-9.5 22.5zM232 208q-13 0 -22.5 9.5t-9.5 22.5t9.5 22.5t22.5 9.5t22.5 -9.5t9.5 -22.5t-9.5 -22.5t-22.5 -9.5z" />
    <glyph glyph-name="box-open" unicode="&#xf49e;" horiz-adv-x="640" 
d="M53 407l-51 -103q-4 -7 -1 -14t11 -9l198 -56q5 -2 10 0t8 7l92 152l-250 32q-5 1 -9.5 -1.5t-7.5 -7.5zM638 304l-51 103q-3 5 -7.5 7.5t-9.5 1.5l-250 -32l92 -152q3 -5 8 -7t10 0l198 56q8 2 11 9t-1 14zM426 192q-13 0 -24 6.5t-18 16.5l-64 107l-64 -107
q-7 -10 -18 -16.5t-24 -6.5q-7 0 -13 2l-137 39v-178q0 -11 7 -19.5t17 -11.5l216 -54q16 -4 31 0l217 54q10 3 17 11.5t7 19.5v178l-137 -39q-6 -2 -13 -2z" />
    <glyph glyph-name="box" unicode="&#xf466;" 
d="M510 263l-51 152q-5 15 -17.5 24t-28.5 9h-141v-192h239zM240 448h-141q-16 0 -28.5 -9t-17.5 -24l-50 -152l-2 -7h239v192zM0 224v-240q0 -20 14 -34t34 -14h416q20 0 34 14t14 34v240h-512z" />
    <glyph glyph-name="briefcase" unicode="&#xf0b1;" 
d="M320 112q0 -7 -4.5 -11.5t-11.5 -4.5h-96q-7 0 -11.5 4.5t-4.5 11.5v48h-192v-144q0 -19 14.5 -33.5t33.5 -14.5h416q19 0 33.5 14.5t14.5 33.5v144h-192v-48zM464 320h-80v48q0 19 -14.5 33.5t-33.5 14.5h-160q-19 0 -33.5 -14.5t-14.5 -33.5v-48h-80q-19 0 -33.5 -14.5
t-14.5 -33.5v-80h512v80q0 19 -14.5 33.5t-33.5 14.5zM320 320h-128v32h128v-32z" />
    <glyph glyph-name="broadcast-tower" unicode="&#xf519;" horiz-adv-x="640" 
d="M151 256h34q8 0 12.5 6.5t2.5 14.5q-8 21 -8 43t8 43q2 8 -2.5 14.5t-12.5 6.5h-34q-5 0 -9.5 -3t-5.5 -8q-8 -26 -8 -53t8 -53q1 -5 5.5 -8t9.5 -3zM90 425q4 8 -0.5 15.5t-13.5 7.5h-35q-11 0 -15 -9q-26 -57 -26 -119t27 -119q4 -9 14 -9h35q9 0 13.5 7.5t0.5 15.5
q-32 61 -25 128q5 44 25 82zM614 439q-4 9 -15 9h-35q-9 0 -13.5 -7.5t-0.5 -15.5q20 -38 25 -84q7 -66 -25 -125q-4 -9 0.5 -16.5t13.5 -7.5h35q11 0 15 9q26 57 26 119t-26 119zM489 384h-34q-8 0 -12.5 -6.5t-2.5 -14.5q8 -21 8 -43t-8 -43q-2 -8 2.5 -14.5t12.5 -6.5h34
q5 0 9.5 3t5.5 8q8 26 8 53t-8 53q-1 5 -5.5 8t-9.5 3zM373 284q11 16 11 36q0 27 -19 45.5t-45 18.5t-45 -18.5t-19 -45.5q0 -20 11 -36l-130 -314q-3 -6 -0.5 -12t8.5 -8l30 -13q6 -2 12 0.5t9 8.5l49 118h150l49 -118q3 -6 9 -8.5t12 -0.5l30 13q6 2 8.5 8t-0.5 12z
M272 128l48 116l48 -116h-96z" />
    <glyph glyph-name="bug" unicode="&#xf188;" 
d="M512 159q0 -13 -10 -22t-23 -9h-55v-16q0 -32 -14 -61l61 -60q9 -10 9 -23t-9.5 -22.5t-22.5 -9.5t-23 9l-54 55q-40 -32 -91 -32v244q0 5 -3.5 8.5t-8.5 3.5h-24q-5 0 -8.5 -3.5t-3.5 -8.5v-244q-51 0 -91 32l-54 -55q-10 -9 -23 -9t-22.5 9.5t-9.5 22.5t9 23l61 60
q-14 29 -14 61v16h-55q-13 0 -23 9t-10 22.5t9.5 23t22.5 9.5h56v59l-47 46q-9 10 -9 23t9.5 22.5t22.5 9.5t23 -9l54 -55h230l54 55q10 9 23 9t22.5 -9.5t9.5 -22.5t-9 -23l-47 -46v-59h56q13 0 22.5 -9.5t9.5 -23.5zM257 448q-30 0 -56 -15t-41 -41t-15 -56h224
q0 30 -15 56t-41 41t-56 15z" />
    <glyph glyph-name="building" unicode="&#xf1ad;" horiz-adv-x="448" 
d="M436 -32h-20v456q0 10 -7 17t-17 7h-336q-10 0 -17 -7t-7 -17v-456h-20q-5 0 -8.5 -3.5t-3.5 -8.5v-20h448v20q0 5 -3.5 8.5t-8.5 3.5zM128 372q0 5 3.5 8.5t8.5 3.5h40q5 0 8.5 -3.5t3.5 -8.5v-40q0 -5 -3.5 -8.5t-8.5 -3.5h-40q-5 0 -8.5 3.5t-3.5 8.5v40zM128 276
q0 5 3.5 8.5t8.5 3.5h40q5 0 8.5 -3.5t3.5 -8.5v-40q0 -5 -3.5 -8.5t-8.5 -3.5h-40q-5 0 -8.5 3.5t-3.5 8.5v40zM180 128h-40q-5 0 -8.5 3.5t-3.5 8.5v40q0 5 3.5 8.5t8.5 3.5h40q5 0 8.5 -3.5t3.5 -8.5v-40q0 -5 -3.5 -8.5t-8.5 -3.5zM256 -32h-64v84q0 5 3.5 8.5t8.5 3.5
h40q5 0 8.5 -3.5t3.5 -8.5v-84zM320 140q0 -5 -3.5 -8.5t-8.5 -3.5h-40q-5 0 -8.5 3.5t-3.5 8.5v40q0 5 3.5 8.5t8.5 3.5h40q5 0 8.5 -3.5t3.5 -8.5v-40zM320 236q0 -5 -3.5 -8.5t-8.5 -3.5h-40q-5 0 -8.5 3.5t-3.5 8.5v40q0 5 3.5 8.5t8.5 3.5h40q5 0 8.5 -3.5t3.5 -8.5
v-40zM320 332q0 -5 -3.5 -8.5t-8.5 -3.5h-40q-5 0 -8.5 3.5t-3.5 8.5v40q0 5 3.5 8.5t8.5 3.5h40q5 0 8.5 -3.5t3.5 -8.5v-40z" />
    <glyph glyph-name="bullhorn" unicode="&#xf0a1;" horiz-adv-x="576" 
d="M576 208q0 17 -8.5 32t-23.5 23v153q0 10 -7 19q-9 13 -25 13q-11 0 -20 -7l-85 -68q-32 -26 -71 -39.5t-80 -13.5h-192q-27 0 -45.5 -18.5t-18.5 -45.5v-96q0 -27 18.5 -45.5t45.5 -18.5h34q-2 -16 -2 -32q0 -58 25 -111q4 -8 11.5 -12.5t16.5 -4.5h75q12 0 21 8.5
t10.5 20.5t-5.5 22q-26 34 -26 77q0 16 4 32h28q41 0 80 -13.5t71 -39.5l85 -68q9 -7 20 -7q16 0 25 13q7 9 7 19v153q15 8 23.5 23t8.5 32zM480 67l-33 26q-41 32 -90 49.5t-101 17.5v96q52 0 101 17.5t90 49.5l33 26v-282z" />
    <glyph glyph-name="bullseye" unicode="&#xf140;" horiz-adv-x="496" 
d="M248 440q-67 0 -124 -33.5t-90.5 -90.5t-33.5 -124t33.5 -124t90.5 -90.5t124 -33.5t124 33.5t90.5 90.5t33.5 124t-33.5 124t-90.5 90.5t-124 33.5zM248 8q-50 0 -92.5 24.5t-67 67t-24.5 92.5t24.5 92.5t67 67t92.5 24.5t92.5 -24.5t67 -67t24.5 -92.5t-24.5 -92.5
t-67 -67t-92.5 -24.5zM248 320q-35 0 -64.5 -17t-46.5 -46.5t-17 -64.5t17 -64.5t46.5 -46.5t64.5 -17t64.5 17t46.5 46.5t17 64.5t-17 64.5t-46.5 46.5t-64.5 17zM248 128q-26 0 -45 19t-19 45t19 45t45 19t45 -19t19 -45t-19 -45t-45 -19z" />
    <glyph glyph-name="burn" unicode="&#xf46a;" horiz-adv-x="384" 
d="M192 448q-86 -77 -138 -158q-54 -84 -54 -142q0 -62 24.5 -110t68 -75t99.5 -27t99.5 27t68 75t24.5 110q0 58 -54 142q-53 81 -138 158zM192 0q-42 0 -69 26.5t-27 68.5q0 20 14 48q23 49 82 113q59 -64 82 -113q14 -28 14 -48q0 -42 -27 -68.5t-69 -26.5z" />
    <glyph glyph-name="business-time" unicode="&#xf64a;" horiz-adv-x="640" 
d="M496 224q-39 0 -72 -19.5t-52.5 -52.5t-19.5 -72t19.5 -72t52.5 -52.5t72 -19.5t72 19.5t52.5 52.5t19.5 72t-19.5 72t-52.5 52.5t-72 19.5zM560 74q0 -4 -3 -7t-7 -3h-60q-4 0 -7 3t-3 7v76q0 4 3 7t7 3h12q4 0 7 -3t3 -7v-54h38q4 0 7 -3t3 -7v-12zM496 256q7 0 16 -1
v49q0 19 -14.5 33.5t-33.5 14.5h-80v48q0 19 -14.5 33.5t-33.5 14.5h-160q-19 0 -33.5 -14.5t-14.5 -33.5v-48h-80q-19 0 -33.5 -14.5t-14.5 -33.5v-80h395q46 32 101 32zM320 352h-128v32h128v-32zM327 128h-119q-7 0 -11.5 4.5t-4.5 11.5v48h-192v-144q0 -19 14.5 -33.5
t33.5 -14.5h291q-19 38 -19 80q0 24 7 48z" />
    <glyph glyph-name="calculator-alt" unicode="&#xf64c;" 
d="M192 160h-160q-13 0 -22.5 -9.5t-9.5 -22.5v-160q0 -13 9.5 -22.5t22.5 -9.5h160q13 0 22.5 9.5t9.5 22.5v160q0 13 -9.5 22.5t-22.5 9.5zM163 20q2 -3 2 -6t-2 -6l-11 -11q-3 -2 -6 -2t-6 2l-28 28l-28 -28q-3 -2 -6 -2t-6 2l-11 11q-2 3 -2 6t2 6l28 28l-28 28
q-2 3 -2 6t2 6l11 11q3 2 6 2t6 -2l28 -28l28 28q3 2 6 2t6 -2l11 -11q2 -3 2 -6t-2 -6l-28 -28zM480 448h-160q-13 0 -22.5 -9.5t-9.5 -22.5v-160q0 -13 9.5 -22.5t22.5 -9.5h160q13 0 22.5 9.5t9.5 22.5v160q0 13 -9.5 22.5t-22.5 9.5zM464 328q0 -3 -2.5 -5.5t-5.5 -2.5
h-40v-40q0 -3 -2.5 -5.5t-5.5 -2.5h-16q-3 0 -5.5 2.5t-2.5 5.5v40h-40q-3 0 -5.5 2.5t-2.5 5.5v16q0 3 2.5 5.5t5.5 2.5h40v40q0 3 2.5 5.5t5.5 2.5h16q3 0 5.5 -2.5t2.5 -5.5v-40h40q3 0 5.5 -2.5t2.5 -5.5v-16zM480 160h-160q-13 0 -22.5 -9.5t-9.5 -22.5v-160
q0 -13 9.5 -22.5t22.5 -9.5h160q13 0 22.5 9.5t9.5 22.5v160q0 13 -9.5 22.5t-22.5 9.5zM464 8q0 -3 -2.5 -5.5t-5.5 -2.5h-112q-3 0 -5.5 2.5t-2.5 5.5v16q0 3 2.5 5.5t5.5 2.5h112q3 0 5.5 -2.5t2.5 -5.5v-16zM464 72q0 -3 -2.5 -5.5t-5.5 -2.5h-112q-3 0 -5.5 2.5
t-2.5 5.5v16q0 3 2.5 5.5t5.5 2.5h112q3 0 5.5 -2.5t2.5 -5.5v-16zM192 448h-160q-13 0 -22.5 -9.5t-9.5 -22.5v-160q0 -13 9.5 -22.5t22.5 -9.5h160q13 0 22.5 9.5t9.5 22.5v160q0 13 -9.5 22.5t-22.5 9.5zM176 328q0 -3 -2.5 -5.5t-5.5 -2.5h-112q-3 0 -5.5 2.5t-2.5 5.5
v16q0 3 2.5 5.5t5.5 2.5h112q3 0 5.5 -2.5t2.5 -5.5v-16z" />
    <glyph glyph-name="calculator" unicode="&#xf1ec;" horiz-adv-x="448" 
d="M400 448h-352q-19 0 -33.5 -14.5t-14.5 -33.5v-416q0 -19 14.5 -33.5t33.5 -14.5h352q19 0 33.5 14.5t14.5 33.5v416q0 19 -14.5 33.5t-33.5 14.5zM128 13q0 -5 -4 -9t-9 -4h-38q-5 0 -9 4t-4 9v38q0 5 4 9t9 4h38q5 0 9 -4t4 -9v-38zM128 141q0 -5 -4 -9t-9 -4h-38
q-5 0 -9 4t-4 9v38q0 5 4 9t9 4h38q5 0 9 -4t4 -9v-38zM256 13q0 -5 -4 -9t-9 -4h-38q-5 0 -9 4t-4 9v38q0 5 4 9t9 4h38q5 0 9 -4t4 -9v-38zM256 141q0 -5 -4 -9t-9 -4h-38q-5 0 -9 4t-4 9v38q0 5 4 9t9 4h38q5 0 9 -4t4 -9v-38zM384 13q0 -5 -4 -9t-9 -4h-38q-5 0 -9 4
t-4 9v166q0 5 4 9t9 4h38q5 0 9 -4t4 -9v-166zM384 269q0 -5 -4 -9t-9 -4h-294q-5 0 -9 4t-4 9v102q0 5 4 9t9 4h294q5 0 9 -4t4 -9v-102z" />
    <glyph glyph-name="calendar-alt" unicode="&#xf073;" horiz-adv-x="448" 
d="M0 -16q0 -20 14 -34t34 -14h352q20 0 34 14t14 34v272h-448v-272zM320 180q0 5 3.5 8.5t8.5 3.5h40q5 0 8.5 -3.5t3.5 -8.5v-40q0 -5 -3.5 -8.5t-8.5 -3.5h-40q-5 0 -8.5 3.5t-3.5 8.5v40zM320 52q0 5 3.5 8.5t8.5 3.5h40q5 0 8.5 -3.5t3.5 -8.5v-40q0 -5 -3.5 -8.5
t-8.5 -3.5h-40q-5 0 -8.5 3.5t-3.5 8.5v40zM192 180q0 5 3.5 8.5t8.5 3.5h40q5 0 8.5 -3.5t3.5 -8.5v-40q0 -5 -3.5 -8.5t-8.5 -3.5h-40q-5 0 -8.5 3.5t-3.5 8.5v40zM192 52q0 5 3.5 8.5t8.5 3.5h40q5 0 8.5 -3.5t3.5 -8.5v-40q0 -5 -3.5 -8.5t-8.5 -3.5h-40q-5 0 -8.5 3.5
t-3.5 8.5v40zM64 180q0 5 3.5 8.5t8.5 3.5h40q5 0 8.5 -3.5t3.5 -8.5v-40q0 -5 -3.5 -8.5t-8.5 -3.5h-40q-5 0 -8.5 3.5t-3.5 8.5v40zM64 52q0 5 3.5 8.5t8.5 3.5h40q5 0 8.5 -3.5t3.5 -8.5v-40q0 -5 -3.5 -8.5t-8.5 -3.5h-40q-5 0 -8.5 3.5t-3.5 8.5v40zM400 384h-48v48
q0 7 -4.5 11.5t-11.5 4.5h-32q-7 0 -11.5 -4.5t-4.5 -11.5v-48h-128v48q0 7 -4.5 11.5t-11.5 4.5h-32q-7 0 -11.5 -4.5t-4.5 -11.5v-48h-48q-20 0 -34 -14t-14 -34v-48h448v48q0 20 -14 34t-34 14z" />
    <glyph glyph-name="calendar-check" unicode="&#xf274;" horiz-adv-x="448" 
d="M436 288h-424q-5 0 -8.5 3.5t-3.5 8.5v36q0 20 14 34t34 14h48v52q0 5 3.5 8.5t8.5 3.5h40q5 0 8.5 -3.5t3.5 -8.5v-52h128v52q0 5 3.5 8.5t8.5 3.5h40q5 0 8.5 -3.5t3.5 -8.5v-52h48q20 0 34 -14t14 -34v-36q0 -5 -3.5 -8.5t-8.5 -3.5zM12 256h424q5 0 8.5 -3.5
t3.5 -8.5v-260q0 -20 -14 -34t-34 -14h-352q-20 0 -34 14t-14 34v260q0 5 3.5 8.5t8.5 3.5zM345 160l-28 28q-3 4 -8 4t-9 -3l-106 -106l-46 47q-3 3 -8 3t-9 -3l-28 -28q-4 -4 -4 -9t4 -8l82 -84q4 -3 9 -3t8 3l143 142q4 4 4 9t-4 8z" />
    <glyph glyph-name="calendar-day" unicode="&#xf783;" horiz-adv-x="448" 
d="M0 -16q0 -20 14 -34t34 -14h352q20 0 34 14t14 34v272h-448v-272zM64 176q0 7 4.5 11.5t11.5 4.5h96q7 0 11.5 -4.5t4.5 -11.5v-96q0 -7 -4.5 -11.5t-11.5 -4.5h-96q-7 0 -11.5 4.5t-4.5 11.5v96zM400 384h-48v48q0 7 -4.5 11.5t-11.5 4.5h-32q-7 0 -11.5 -4.5
t-4.5 -11.5v-48h-128v48q0 7 -4.5 11.5t-11.5 4.5h-32q-7 0 -11.5 -4.5t-4.5 -11.5v-48h-48q-20 0 -34 -14t-14 -34v-48h448v48q0 20 -14 34t-34 14z" />
    <glyph glyph-name="calendar-edit" unicode="&#xf333;" horiz-adv-x="448" 
d="M436 288h-424q-5 0 -8.5 3.5t-3.5 8.5v36q0 20 14 34t34 14h48v52q0 5 3.5 8.5t8.5 3.5h40q5 0 8.5 -3.5t3.5 -8.5v-52h128v52q0 5 3.5 8.5t8.5 3.5h40q5 0 8.5 -3.5t3.5 -8.5v-52h48q20 0 34 -14t14 -34v-36q0 -5 -3.5 -8.5t-8.5 -3.5zM12 256h424q5 0 8.5 -3.5
t3.5 -8.5v-260q0 -20 -14 -34t-34 -14h-352q-20 0 -34 14t-14 34v260q0 5 3.5 8.5t8.5 3.5zM220 146l-95 -95l-5 -48q-1 -5 2.5 -8.5t8.5 -2.5l48 5l95 95q4 4 0 8l-46 46q-4 4 -8 0zM330 177l-25 25q-6 6 -14.5 6t-14.5 -6l-26 -26q-3 -3 0 -7l47 -47q4 -3 7 0l26 26
q6 6 6 14.5t-6 14.5z" />
    <glyph glyph-name="calendar-minus" unicode="&#xf272;" horiz-adv-x="448" 
d="M436 288h-424q-5 0 -8.5 3.5t-3.5 8.5v36q0 20 14 34t34 14h48v52q0 5 3.5 8.5t8.5 3.5h40q5 0 8.5 -3.5t3.5 -8.5v-52h128v52q0 5 3.5 8.5t8.5 3.5h40q5 0 8.5 -3.5t3.5 -8.5v-52h48q20 0 34 -14t14 -34v-36q0 -5 -3.5 -8.5t-8.5 -3.5zM12 256h424q5 0 8.5 -3.5
t3.5 -8.5v-260q0 -20 -14 -34t-34 -14h-352q-20 0 -34 14t-14 34v260q0 5 3.5 8.5t8.5 3.5zM316 64q5 0 8.5 3.5t3.5 8.5v40q0 5 -3.5 8.5t-8.5 3.5h-184q-5 0 -8.5 -3.5t-3.5 -8.5v-40q0 -5 3.5 -8.5t8.5 -3.5h184z" />
    <glyph glyph-name="calendar-plus" unicode="&#xf271;" horiz-adv-x="448" 
d="M436 288h-424q-5 0 -8.5 3.5t-3.5 8.5v36q0 20 14 34t34 14h48v52q0 5 3.5 8.5t8.5 3.5h40q5 0 8.5 -3.5t3.5 -8.5v-52h128v52q0 5 3.5 8.5t8.5 3.5h40q5 0 8.5 -3.5t3.5 -8.5v-52h48q20 0 34 -14t14 -34v-36q0 -5 -3.5 -8.5t-8.5 -3.5zM12 256h424q5 0 8.5 -3.5
t3.5 -8.5v-260q0 -20 -14 -34t-34 -14h-352q-20 0 -34 14t-14 34v260q0 5 3.5 8.5t8.5 3.5zM328 116q0 5 -3.5 8.5t-8.5 3.5h-60v60q0 5 -3.5 8.5t-8.5 3.5h-40q-5 0 -8.5 -3.5t-3.5 -8.5v-60h-60q-5 0 -8.5 -3.5t-3.5 -8.5v-40q0 -5 3.5 -8.5t8.5 -3.5h60v-60
q0 -5 3.5 -8.5t8.5 -3.5h40q5 0 8.5 3.5t3.5 8.5v60h60q5 0 8.5 3.5t3.5 8.5v40z" />
    <glyph glyph-name="calendar-times" unicode="&#xf273;" horiz-adv-x="448" 
d="M436 288h-424q-5 0 -8.5 3.5t-3.5 8.5v36q0 20 14 34t34 14h48v52q0 5 3.5 8.5t8.5 3.5h40q5 0 8.5 -3.5t3.5 -8.5v-52h128v52q0 5 3.5 8.5t8.5 3.5h40q5 0 8.5 -3.5t3.5 -8.5v-52h48q20 0 34 -14t14 -34v-36q0 -5 -3.5 -8.5t-8.5 -3.5zM12 256h424q5 0 8.5 -3.5
t3.5 -8.5v-260q0 -20 -14 -34t-34 -14h-352q-20 0 -34 14t-14 34v260q0 5 3.5 8.5t8.5 3.5zM269 96l48 48q4 4 4 9t-4 8l-28 28q-3 4 -8 4t-9 -4l-48 -48l-48 48q-4 4 -9 4t-8 -4l-28 -28q-4 -3 -4 -8t4 -9l48 -48l-48 -48q-4 -4 -4 -9t4 -8l28 -28q3 -4 8 -4t9 4l48 48
l48 -48q4 -4 9 -4t8 4l28 28q4 3 4 8t-4 9z" />
    <glyph glyph-name="calendar-week" unicode="&#xf784;" horiz-adv-x="448" 
d="M0 -16q0 -20 14 -34t34 -14h352q20 0 34 14t14 34v272h-448v-272zM64 176q0 7 4.5 11.5t11.5 4.5h288q7 0 11.5 -4.5t4.5 -11.5v-64q0 -7 -4.5 -11.5t-11.5 -4.5h-288q-7 0 -11.5 4.5t-4.5 11.5v64zM400 384h-48v48q0 7 -4.5 11.5t-11.5 4.5h-32q-7 0 -11.5 -4.5
t-4.5 -11.5v-48h-128v48q0 7 -4.5 11.5t-11.5 4.5h-32q-7 0 -11.5 -4.5t-4.5 -11.5v-48h-48q-20 0 -34 -14t-14 -34v-48h448v48q0 20 -14 34t-34 14z" />
    <glyph glyph-name="calendar" unicode="&#xf133;" horiz-adv-x="448" 
d="M12 256h424q5 0 8.5 -3.5t3.5 -8.5v-260q0 -20 -14 -34t-34 -14h-352q-20 0 -34 14t-14 34v260q0 5 3.5 8.5t8.5 3.5zM448 300v36q0 20 -14 34t-34 14h-48v52q0 5 -3.5 8.5t-8.5 3.5h-40q-5 0 -8.5 -3.5t-3.5 -8.5v-52h-128v52q0 5 -3.5 8.5t-8.5 3.5h-40q-5 0 -8.5 -3.5
t-3.5 -8.5v-52h-48q-20 0 -34 -14t-14 -34v-36q0 -5 3.5 -8.5t8.5 -3.5h424q5 0 8.5 3.5t3.5 8.5z" />
    <glyph glyph-name="camera-alt" unicode="&#xf332;" 
d="M512 304v-288q0 -20 -14 -34t-34 -14h-416q-20 0 -34 14t-14 34v288q0 20 14 34t34 14h88l12 33q6 14 18 22.5t27 8.5h126q15 0 27 -8.5t18 -22.5l12 -33h88q20 0 34 -14t14 -34zM376 160q0 33 -16 60.5t-43.5 43.5t-60.5 16t-60.5 -16t-43.5 -43.5t-16 -60.5t16 -60.5
t43.5 -43.5t60.5 -16t60.5 16t43.5 43.5t16 60.5zM344 160q0 -36 -26 -62t-62 -26t-62 26t-26 62t26 62t62 26t62 -26t26 -62zM224 160q0 13 9.5 22.5t22.5 9.5q7 0 11.5 4.5t4.5 11.5t-4.5 11.5t-11.5 4.5q-26 0 -45 -19t-19 -45q0 -7 4.5 -11.5t11.5 -4.5t11.5 4.5
t4.5 11.5z" />
    <glyph glyph-name="camera-retro" unicode="&#xf083;" 
d="M48 416q-20 0 -34 -14t-14 -34v-352q0 -20 14 -34t34 -14h416q20 0 34 14t14 34v352q0 20 -14 34t-34 14h-416zM48 384h106q2 0 4 -2t2 -4v-20q0 -2 -2 -4t-4 -2h-116q-2 0 -4 2t-2 4v10q0 7 4.5 11.5t11.5 4.5zM474 288h-436q-2 0 -4 2t-2 4v36q0 2 2 4t4 2h138l30 45
q2 3 5 3h253q7 0 11.5 -4.5t4.5 -11.5v-74q0 -2 -2 -4t-4 -2zM256 24q-33 0 -60.5 16t-43.5 43.5t-16 60.5t16 60.5t43.5 43.5t60.5 16t60.5 -16t43.5 -43.5t16 -60.5t-16 -60.5t-43.5 -43.5t-60.5 -16zM256 232q-36 0 -62 -26t-26 -62t26 -62t62 -26t62 26t26 62t-26 62
t-62 26zM208 128q-7 0 -11.5 4.5t-4.5 11.5q0 26 19 45t45 19q7 0 11.5 -4.5t4.5 -11.5t-4.5 -11.5t-11.5 -4.5q-13 0 -22.5 -9.5t-9.5 -22.5q0 -7 -4.5 -11.5t-11.5 -4.5z" />
    <glyph glyph-name="camera" unicode="&#xf030;" 
d="M512 304v-288q0 -20 -14 -34t-34 -14h-416q-20 0 -34 14t-14 34v288q0 20 14 34t34 14h88l12 33q6 14 18 22.5t27 8.5h126q15 0 27 -8.5t18 -22.5l12 -33h88q20 0 34 -14t14 -34zM376 160q0 33 -16 60.5t-43.5 43.5t-60.5 16t-60.5 -16t-43.5 -43.5t-16 -60.5t16 -60.5
t43.5 -43.5t60.5 -16t60.5 16t43.5 43.5t16 60.5zM344 160q0 -36 -26 -62t-62 -26t-62 26t-26 62t26 62t62 26t62 -26t26 -62z" />
    <glyph glyph-name="caret-circle-down" unicode="&#xf32d;" 
d="M504 192q0 -67 -33.5 -124t-90.5 -90.5t-124 -33.5t-124 33.5t-90.5 90.5t-33.5 124t33.5 124t90.5 90.5t124 33.5t124 -33.5t90.5 -90.5t33.5 -124zM125 220l123 -123q3 -4 8 -4t9 4l123 123q5 5 2 12.5t-11 7.5h-246q-8 0 -11 -7.5t3 -12.5z" />
    <glyph glyph-name="caret-circle-left" unicode="&#xf32e;" 
d="M256 -56q-67 0 -124 33.5t-90.5 90.5t-33.5 124t33.5 124t90.5 90.5t124 33.5t124 -33.5t90.5 -90.5t33.5 -124t-33.5 -124t-90.5 -90.5t-124 -33.5zM284 324l-123 -123q-4 -4 -4 -9t4 -9l123 -122q5 -6 12.5 -3t7.5 11v246q0 8 -7.5 11t-12.5 -2z" />
    <glyph glyph-name="caret-circle-right" unicode="&#xf330;" 
d="M256 440q67 0 124 -33.5t90.5 -90.5t33.5 -124t-33.5 -124t-90.5 -90.5t-124 -33.5t-124 33.5t-90.5 90.5t-33.5 124t33.5 124t90.5 90.5t124 33.5zM229 61l123 123q3 3 3 8t-3 9l-123 123q-6 5 -13.5 2t-7.5 -11v-246q0 -8 7.5 -11t12.5 3h1z" />
    <glyph glyph-name="caret-circle-up" unicode="&#xf331;" 
d="M8 192q0 67 33.5 124t90.5 90.5t124 33.5t124 -33.5t90.5 -90.5t33.5 -124t-33.5 -124t-90.5 -90.5t-124 -33.5t-124 33.5t-90.5 90.5t-33.5 124zM388 165l-123 123q-4 3 -9 3t-8 -3l-123 -123q-6 -6 -3 -13.5t11 -7.5h246q8 0 11 7.5t-2 12.5v1z" />
    <glyph glyph-name="caret-down" unicode="&#xf0d7;" horiz-adv-x="320" 
d="M31 256h258q13 0 18 -12.5t-4 -21.5l-129 -129q-6 -6 -14 -6t-14 6l-129 129q-9 9 -4 21.5t18 12.5z" />
    <glyph glyph-name="caret-left" unicode="&#xf0d9;" horiz-adv-x="192" 
d="M192 321v-258q0 -13 -12.5 -18t-21.5 4l-129 129q-6 6 -6 14t6 14l129 129q9 9 21.5 4t12.5 -18z" />
    <glyph glyph-name="caret-right" unicode="&#xf0da;" horiz-adv-x="192" 
d="M0 63v258q0 13 12.5 18t21.5 -4l129 -129q6 -6 6 -14t-6 -14l-129 -129q-9 -9 -21.5 -4t-12.5 18z" />
    <glyph glyph-name="caret-square-down" unicode="&#xf150;" horiz-adv-x="448" 
d="M448 368v-352q0 -20 -14 -34t-34 -14h-352q-20 0 -34 14t-14 34v352q0 20 14 34t34 14h352q20 0 34 -14t14 -34zM93 228l123 -123q3 -4 8 -4t9 4l123 123q5 5 2 12.5t-11 7.5h-246q-8 0 -11 -7.5t3 -12.5z" />
    <glyph glyph-name="caret-square-left" unicode="&#xf191;" horiz-adv-x="448" 
d="M400 -32h-352q-20 0 -34 14t-14 34v352q0 20 14 34t34 14h352q20 0 34 -14t14 -34v-352q0 -20 -14 -34t-34 -14zM260 324l-124 -124q-3 -3 -3 -8t3 -8l124 -124q5 -5 12.5 -2t7.5 11v246q0 8 -7.5 11t-12.5 -2z" />
    <glyph glyph-name="caret-square-right" unicode="&#xf152;" horiz-adv-x="448" 
d="M48 416h352q20 0 34 -14t14 -34v-352q0 -20 -14 -34t-34 -14h-352q-20 0 -34 14t-14 34v352q0 20 14 34t34 14zM188 60l124 124q3 3 3 8t-3 8l-124 124q-5 5 -12.5 2t-7.5 -11v-246q0 -8 7.5 -11t12.5 2z" />
    <glyph glyph-name="caret-square-up" unicode="&#xf151;" horiz-adv-x="448" 
d="M0 16v352q0 20 14 34t34 14h352q20 0 34 -14t14 -34v-352q0 -20 -14 -34t-34 -14h-352q-20 0 -34 14t-14 34zM356 156l-124 124q-3 3 -8 3t-8 -3l-124 -124q-5 -5 -2 -12.5t11 -7.5h246q8 0 11 7.5t-2 12.5z" />
    <glyph glyph-name="caret-up" unicode="&#xf0d8;" horiz-adv-x="320" 
d="M289 96h-258q-13 0 -18 12.5t4 21.5l129 129q6 6 14 6t14 -6l129 -129q9 -9 4 -21.5t-18 -12.5z" />
    <glyph glyph-name="cart-arrow-down" unicode="&#xf218;" horiz-adv-x="576" 
d="M505 128h-293l6 -32h269q11 0 18 -9t5 -20l-6 -25q15 -7 23.5 -20.5t8.5 -29.5q0 -23 -16.5 -39.5t-39.5 -16.5t-39 16t-17 39.5t17 40.5h-210q17 -16 17 -40t-17.5 -40.5t-41.5 -15.5q-21 1 -36.5 16.5t-16.5 36.5q-1 16 7 30t21 22l-70 343h-70q-10 0 -17 7t-7 17v16
q0 10 7 17t17 7h103q8 0 14.5 -5.5t8.5 -13.5l9 -45h393q12 0 19 -9t4 -20l-47 -208q-2 -9 -8.5 -14t-14.5 -5zM403 256h-43v60q0 5 -3.5 8.5t-8.5 3.5h-24q-5 0 -8.5 -3.5t-3.5 -8.5v-60h-43q-8 0 -11 -7.5t2 -12.5l68 -68q3 -3 8 -3t8 3l68 68q5 5 2 12.5t-11 7.5z" />
    <glyph glyph-name="cart-plus" unicode="&#xf217;" horiz-adv-x="576" 
d="M505 128h-293l6 -32h269q11 0 18 -9t5 -20l-6 -25q15 -7 23.5 -20.5t8.5 -29.5q0 -23 -16.5 -39.5t-39.5 -16.5t-39 16t-17 39.5t17 40.5h-210q17 -16 17 -40t-17.5 -40.5t-41.5 -15.5q-21 1 -36.5 16.5t-16.5 36.5q-1 16 7 30t21 22l-70 343h-70q-10 0 -17 7t-7 17v16
q0 10 7 17t17 7h103q8 0 14.5 -5.5t8.5 -13.5l9 -45h393q12 0 19 -9t4 -20l-47 -208q-2 -9 -8.5 -14t-14.5 -5zM408 280h-48v40q0 7 -4.5 11.5t-11.5 4.5h-16q-7 0 -11.5 -4.5t-4.5 -11.5v-40h-48q-7 0 -11.5 -4.5t-4.5 -11.5v-16q0 -7 4.5 -11.5t11.5 -4.5h48v-40
q0 -7 4.5 -11.5t11.5 -4.5h16q7 0 11.5 4.5t4.5 11.5v40h48q7 0 11.5 4.5t4.5 11.5v16q0 7 -4.5 11.5t-11.5 4.5z" />
    <glyph glyph-name="cash-register" unicode="&#xf788;" 
d="M511 69l-27 160q-2 12 -10.5 19.5t-20.5 7.5h-245v64h96q7 0 11.5 4.5t4.5 11.5v96q0 7 -4.5 11.5t-11.5 4.5h-256q-7 0 -11.5 -4.5t-4.5 -11.5v-96q0 -7 4.5 -11.5t11.5 -4.5h96v-64h-85q-12 0 -21 -7.5t-10 -19.5l-27 -160q-1 -5 -1 -10v-91q0 -13 9.5 -22.5t22.5 -9.5
h448q13 0 22.5 9.5t9.5 22.5v91q0 5 -1 10zM280 200q0 7 4.5 11.5t11.5 4.5h16q7 0 11.5 -4.5t4.5 -11.5v-16q0 -7 -4.5 -11.5t-11.5 -4.5h-16q-7 0 -11.5 4.5t-4.5 11.5v16zM248 136h16q7 0 11.5 -4.5t4.5 -11.5v-16q0 -7 -4.5 -11.5t-11.5 -4.5h-16q-7 0 -11.5 4.5
t-4.5 11.5v16q0 7 4.5 11.5t11.5 4.5zM216 216q7 0 11.5 -4.5t4.5 -11.5v-16q0 -7 -4.5 -11.5t-11.5 -4.5h-16q-7 0 -11.5 4.5t-4.5 11.5v16q0 7 4.5 11.5t11.5 4.5h16zM80 368v32h192v-32h-192zM120 168h-16q-7 0 -11.5 4.5t-4.5 11.5v16q0 7 4.5 11.5t11.5 4.5h16
q7 0 11.5 -4.5t4.5 -11.5v-16q0 -7 -4.5 -11.5t-11.5 -4.5zM136 104v16q0 7 4.5 11.5t11.5 4.5h16q7 0 11.5 -4.5t4.5 -11.5v-16q0 -7 -4.5 -11.5t-11.5 -4.5h-16q-7 0 -11.5 4.5t-4.5 11.5zM352 -8q0 -3 -2.5 -5.5t-5.5 -2.5h-176q-3 0 -5.5 2.5t-2.5 5.5v16q0 3 2.5 5.5
t5.5 2.5h176q3 0 5.5 -2.5t2.5 -5.5v-16zM376 104q0 -7 -4.5 -11.5t-11.5 -4.5h-16q-7 0 -11.5 4.5t-4.5 11.5v16q0 7 4.5 11.5t11.5 4.5h16q7 0 11.5 -4.5t4.5 -11.5v-16zM424 184q0 -7 -4.5 -11.5t-11.5 -4.5h-16q-7 0 -11.5 4.5t-4.5 11.5v16q0 7 4.5 11.5t11.5 4.5h16
q7 0 11.5 -4.5t4.5 -11.5v-16z" />
    <glyph glyph-name="chart-area" unicode="&#xf1fe;" 
d="M500 64q5 0 8.5 -3.5t3.5 -8.5v-40q0 -5 -3.5 -8.5t-8.5 -3.5h-488q-5 0 -8.5 3.5t-3.5 8.5v360q0 5 3.5 8.5t8.5 3.5h40q5 0 8.5 -3.5t3.5 -8.5v-308h436zM373 289l-85 -57l-85 114q-4 5 -10.5 4.5t-9.5 -5.5l-87 -145v-104h384l-90 188q-2 5 -7.5 6.5t-9.5 -2.5v1z" />
    <glyph glyph-name="chart-bar" unicode="&#xf080;" 
d="M333 128h38q5 0 9 4t4 9v134q0 5 -4 9t-9 4h-38q-5 0 -9 -4t-4 -9v-134q0 -5 4 -9t9 -4zM429 128h38q5 0 9 4t4 9v230q0 5 -4 9t-9 4h-38q-5 0 -9 -4t-4 -9v-230q0 -5 4 -9t9 -4zM141 128h38q5 0 9 4t4 9v70q0 5 -4 9t-9 4h-38q-5 0 -9 -4t-4 -9v-70q0 -5 4 -9t9 -4z
M237 128h38q5 0 9 4t4 9v198q0 5 -4 9t-9 4h-38q-5 0 -9 -4t-4 -9v-198q0 -5 4 -9t9 -4zM496 64h-432v304q0 7 -4.5 11.5t-11.5 4.5h-32q-7 0 -11.5 -4.5t-4.5 -11.5v-336q0 -13 9.5 -22.5t22.5 -9.5h464q7 0 11.5 4.5t4.5 11.5v32q0 7 -4.5 11.5t-11.5 4.5z" />
    <glyph glyph-name="chart-line-down" unicode="&#xf64d;" 
d="M496 64h-432v304q0 7 -4.5 11.5t-11.5 4.5h-32q-7 0 -11.5 -4.5t-4.5 -11.5v-336q0 -13 9.5 -22.5t22.5 -9.5h464q7 0 11.5 4.5t4.5 11.5v32q0 7 -4.5 11.5t-11.5 4.5zM480 144v118q0 10 -7 17t-17 7t-17 -7l-32 -32l-96 96q-10 9 -23 9t-23 -9l-73 -74l-46 46
q-5 5 -11.5 5t-11.5 -5l-22 -22q-5 -5 -5 -11.5t5 -11.5l68 -69q10 -9 23 -9t23 9l73 74l73 -74l-32 -32q-7 -7 -7 -17t7 -17t17 -7h118q7 0 11.5 4.5t4.5 11.5z" />
    <glyph glyph-name="chart-line" unicode="&#xf201;" 
d="M496 64h-432v304q0 7 -4.5 11.5t-11.5 4.5h-32q-7 0 -11.5 -4.5t-4.5 -11.5v-336q0 -13 9.5 -22.5t22.5 -9.5h464q7 0 11.5 4.5t4.5 11.5v32q0 7 -4.5 11.5t-11.5 4.5zM464 352h-118q-10 0 -17 -7t-7 -17t7 -17l32 -32l-73 -74l-73 74q-10 9 -23 9t-23 -9l-68 -69
q-5 -5 -5 -11.5t5 -11.5l22 -22q5 -5 11.5 -5t11.5 5l46 46l73 -74q10 -9 23 -9t23 9l96 96l32 -32q7 -7 17 -7t17 7t7 17v118q0 7 -4.5 11.5t-11.5 4.5z" />
    <glyph glyph-name="chart-pie-alt" unicode="&#xf64e;" 
d="M461 160h-237v237q0 8 -5.5 12.5t-12.5 3.5q-59 -8 -107 -43t-74.5 -88t-24.5 -114t34 -113.5t84.5 -84.5t113.5 -34t114 24.5t88 74.5t43 107q1 7 -4 12.5t-12 5.5zM289 448q-7 0 -12 -4.5t-5 -11.5v-224h224q7 0 11.5 5t4.5 12q-4 59 -34.5 108.5t-80 80t-108.5 34.5z
" />
    <glyph glyph-name="chart-pie" unicode="&#xf200;" horiz-adv-x="544" 
d="M528 160h-237l158 -158q4 -5 10.5 -5t11.5 4q29 28 48 64t25 77q1 7 -4 12.5t-12 5.5zM512 225q-4 59 -34.5 108.5t-80 80t-108.5 34.5q-7 0 -12 -4.5t-5 -11.5v-224h224q7 0 11.5 5t4.5 12zM224 160v237q0 8 -5.5 12.5t-12.5 3.5q-59 -8 -107 -43t-74.5 -88t-24.5 -115
t36 -115.5t89 -85t118 -30.5q75 1 135 44q6 4 6.5 11.5t-4.5 12.5z" />
    <glyph glyph-name="check-circle" unicode="&#xf058;" 
d="M504 192q0 -67 -33.5 -124t-90.5 -90.5t-124 -33.5t-124 33.5t-90.5 90.5t-33.5 124t33.5 124t90.5 90.5t124 33.5t124 -33.5t90.5 -90.5t33.5 -124zM227 61l184 184q5 4 5 11t-5 11l-22 23q-5 5 -11.5 5t-11.5 -5l-150 -150l-70 70q-5 5 -11.5 5t-11.5 -5l-22 -23
q-5 -4 -5 -11t5 -11l104 -104q4 -5 11 -5t11 5z" />
    <glyph glyph-name="check-double" unicode="&#xf560;" 
d="M505 276l-37 36q-7 8 -17.5 8t-18.5 -8l-240 -241l-112 113q-8 7 -18.5 7t-17.5 -7l-36 -37q-8 -7 -8 -18t8 -18l166 -167q7 -8 18 -8t18 8l295 296q7 7 7 18t-7 18zM167 165q5 -5 12 -5t13 5l212 210q5 5 5 12.5t-5 13.5l-42 42q-5 5 -12.5 5t-12.5 -5l-157 -156l-69 69
q-5 5 -12 5t-13 -5l-42 -42q-5 -5 -5 -12.5t5 -12.5z" />
    <glyph glyph-name="check-square" unicode="&#xf14a;" horiz-adv-x="448" 
d="M400 -32h-352q-20 0 -34 14t-14 34v352q0 20 14 34t34 14h352q20 0 34 -14t14 -34v-352q0 -20 -14 -34t-34 -14zM195 66l184 184q5 5 5 11.5t-5 11.5l-22 22q-5 5 -11.5 5t-11.5 -5l-150 -150l-70 70q-5 5 -11.5 5t-11.5 -5l-22 -22q-5 -5 -5 -11.5t5 -11.5l104 -104
q4 -5 11 -5t11 5z" />
    <glyph glyph-name="check" unicode="&#xf00c;" 
d="M174 9l-167 166q-7 7 -7 18t7 18l37 36q7 8 17.5 8t18.5 -8l112 -112l240 240q8 8 18.5 8t17.5 -8l37 -36q7 -7 7 -18t-7 -18l-295 -294q-7 -8 -18 -8t-18 8z" />
    <glyph glyph-name="chevron-circle-down" unicode="&#xf13a;" 
d="M504 192q0 -67 -33.5 -124t-90.5 -90.5t-124 -33.5t-124 33.5t-90.5 90.5t-33.5 124t33.5 124t90.5 90.5t124 33.5t124 -33.5t90.5 -90.5t33.5 -124zM273 78l136 136q7 7 7 17t-7 17l-17 17q-8 7 -17.5 7t-16.5 -7l-102 -102l-102 102q-7 7 -17 7t-16 -8l-17 -16
q-8 -8 -8 -17.5t8 -16.5l135 -136q7 -7 17 -7t17 7z" />
    <glyph glyph-name="chevron-circle-left" unicode="&#xf137;" 
d="M256 -56q-67 0 -124 33.5t-90.5 90.5t-33.5 124t33.5 124t90.5 90.5t124 33.5t124 -33.5t90.5 -90.5t33.5 -124t-33.5 -124t-90.5 -90.5t-124 -33.5zM142 175l136 -135q7 -8 17 -8t17 7l17 18q7 7 7 16.5t-8 16.5l-101 102l102 102q7 7 7 17t-8 16l-16 18q-8 7 -17.5 7
t-16.5 -7l-136 -136q-7 -7 -7 -17t7 -17z" />
    <glyph glyph-name="chevron-circle-right" unicode="&#xf138;" 
d="M256 440q67 0 124 -33.5t90.5 -90.5t33.5 -124t-33.5 -124t-90.5 -90.5t-124 -33.5t-124 33.5t-90.5 90.5t-33.5 124t33.5 124t90.5 90.5t124 33.5zM370 209l-136 136q-7 7 -17 7t-16 -7l-17 -17q-8 -8 -8 -17.5t8 -16.5l101 -102l-101 -102q-8 -7 -8 -17t8 -17l17 -16
q7 -8 16.5 -8t16.5 7l136 136q7 7 7 17t-7 17z" />
    <glyph glyph-name="chevron-circle-up" unicode="&#xf139;" 
d="M8 192q0 67 33.5 124t90.5 90.5t124 33.5t124 -33.5t90.5 -90.5t33.5 -124t-33.5 -124t-90.5 -90.5t-124 -33.5t-124 33.5t-90.5 90.5t-33.5 124zM239 306l-135 -136q-8 -7 -8 -17t8 -16l17 -17q7 -8 16.5 -8t16.5 8l102 101l102 -101q7 -8 17 -8t17 8l17 17q7 7 7 16.5
t-7 16.5l-136 136q-7 7 -17 7t-17 -7z" />
    <glyph glyph-name="chevron-double-down" unicode="&#xf322;" horiz-adv-x="448" 
d="M207 -29l-194 194q-7 7 -7 17t7 17l22 23q7 7 17 7t17 -8l155 -153l155 154q7 6 17 6t17 -7l22 -22q7 -7 7 -17t-7 -17l-194 -194q-7 -7 -17 -7t-17 7zM241 163l194 194q7 7 7 17t-7 17l-22 23q-7 7 -17 7t-17 -7l-155 -154l-155 154q-7 6 -17 6t-17 -7l-22 -22
q-7 -7 -7 -17t7 -17l194 -194q7 -7 17 -7t17 6v1z" />
    <glyph glyph-name="chevron-double-left" unicode="&#xf323;" 
d="M35 209l194 194q7 7 17 7t17 -7l23 -22q7 -7 7 -17t-8 -17l-153 -155l154 -155q6 -7 6 -17t-7 -17l-22 -22q-7 -7 -17 -7t-17 7l-194 194q-7 7 -7 17t7 17zM227 175l194 -194q7 -7 17 -7t17 7l22 22q7 7 7 17t-7 17l-153 155l154 155q6 7 6 17t-7 17l-22 22q-7 7 -17 7
t-17 -7l-194 -194q-7 -7 -7 -17t7 -17z" />
    <glyph glyph-name="chevron-double-right" unicode="&#xf324;" 
d="M478 175l-195 -194q-7 -7 -17 -7t-17 7l-22 22q-8 7 -8 17t8 17l154 155l-154 155q-7 7 -7 17t7 17l22 22q7 7 17 7t17 -7l195 -194q6 -7 6 -17t-7 -17h1zM286 209l-195 194q-7 7 -17 7t-17 -7l-22 -22q-8 -7 -8 -17t7 -17l155 -155l-154 -155q-7 -7 -7 -17t7 -17l22 -22
q7 -7 17 -7t17 7l195 194q6 7 6 17t-7 17h1z" />
    <glyph glyph-name="chevron-double-up" unicode="&#xf325;" horiz-adv-x="448" 
d="M241 414l194 -195q7 -7 7 -17t-7 -17l-22 -22q-7 -7 -17 -7t-17 7l-155 154l-155 -154q-7 -7 -17 -7t-17 6l-22 23q-7 7 -7 17t7 17l194 195q7 6 17 6t17 -7v1zM207 222l-194 -195q-7 -7 -7 -17t7 -17l22 -22q7 -8 17 -8t17 8l155 154l155 -154q7 -7 17 -7t17 7l22 22
q7 7 7 17t-7 17l-194 195q-7 6 -17 6t-17 -7v1z" />
    <glyph glyph-name="chevron-down" unicode="&#xf078;" horiz-adv-x="448" 
d="M207 67l-194 194q-7 7 -7 17t7 17l22 22q7 7 17 7.5t17 -6.5l155 -155l155 155q7 7 17 6.5t17 -7.5l22 -22q7 -7 7 -17t-7 -17l-194 -194q-7 -8 -17 -8t-17 8z" />
    <glyph glyph-name="chevron-left" unicode="&#xf053;" horiz-adv-x="320" 
d="M35 209l194 194q7 7 17 7t17 -7l22 -22q7 -7 7.5 -17t-6.5 -17l-155 -155l155 -155q7 -7 6.5 -17t-7.5 -17l-22 -22q-7 -7 -17 -7t-17 7l-194 194q-8 7 -8 17t8 17z" />
    <glyph glyph-name="chevron-right" unicode="&#xf054;" horiz-adv-x="320" 
d="M285 175l-194 -194q-7 -7 -17 -7t-17 7l-22 22q-7 7 -7.5 17t6.5 17l155 155l-155 155q-7 7 -6.5 17t7.5 17l22 22q7 7 17 7t17 -7l194 -194q8 -7 8 -17t-8 -17z" />
    <glyph glyph-name="chevron-up" unicode="&#xf077;" horiz-adv-x="448" 
d="M241 317l194 -194q7 -7 7 -17t-7 -17l-22 -22q-7 -7 -17 -7.5t-17 6.5l-155 155l-155 -155q-7 -7 -17 -6.5t-17 7.5l-22 22q-7 7 -7 17t7 17l194 194q7 8 17 8t17 -8z" />
    <glyph glyph-name="church" unicode="&#xf51d;" horiz-adv-x="640" 
d="M464 201l-112 68v51h48q7 0 11.5 4.5t4.5 11.5v32q0 7 -4.5 11.5t-11.5 4.5h-48v48q0 7 -4.5 11.5t-11.5 4.5h-32q-7 0 -11.5 -4.5t-4.5 -11.5v-48h-48q-7 0 -11.5 -4.5t-4.5 -11.5v-32q0 -7 4.5 -11.5t11.5 -4.5h48v-51l-112 -68q-8 -4 -12 -11.5t-4 -15.5v-238h96v96
q0 27 18.5 45.5t45.5 18.5t45.5 -18.5t18.5 -45.5v-96h96v238q0 8 -4 15.5t-12 11.5zM0 52v-100q0 -7 4.5 -11.5t11.5 -4.5h112v192l-109 -47q-8 -3 -13.5 -11t-5.5 -18zM621 81l-109 47v-192h112q7 0 11.5 4.5t4.5 11.5v100q0 10 -5.5 18t-13.5 11z" />
    <glyph glyph-name="circle-notch" unicode="&#xf1ce;" 
d="M288 409v-17q0 -8 5 -14.5t13 -8.5q58 -16 96 -65t38 -112q0 -50 -24.5 -92.5t-67 -67t-92.5 -24.5t-92.5 24.5t-67 67t-24.5 92.5q0 63 38 112t96 65q8 2 13 8.5t5 14.5v17q0 12 -9.5 19t-20.5 4q-53 -14 -95.5 -49t-66.5 -85t-24 -107q0 -68 33.5 -124.5t90.5 -89.5
t124.5 -33t124 33.5t90 90.5t33.5 124q0 57 -24 107t-66.5 85t-95.5 48q-12 3 -21 -4t-9 -19z" />
    <glyph glyph-name="circle" unicode="&#xf111;" 
d="M256 440q-67 0 -124 -33.5t-90.5 -90.5t-33.5 -124t33.5 -124t90.5 -90.5t124 -33.5t124 33.5t90.5 90.5t33.5 124t-33.5 124t-90.5 90.5t-124 33.5z" />
    <glyph glyph-name="clipboard" unicode="&#xf328;" horiz-adv-x="384" 
d="M384 336v-352q0 -20 -14 -34t-34 -14h-288q-20 0 -34 14t-14 34v352q0 20 14 34t34 14h80q0 26 19 45t45 19t45 -19t19 -45h80q20 0 34 -14t14 -34zM192 408q-10 0 -17 -7t-7 -17t7 -17t17 -7t17 7t7 17t-7 17t-17 7zM288 294v20q0 2 -2 4t-4 2h-180q-2 0 -4 -2t-2 -4
v-20q0 -2 2 -4t4 -2h180q2 0 4 2t2 4z" />
    <glyph glyph-name="clock" unicode="&#xf017;" 
d="M256 440q-67 0 -124 -33.5t-90.5 -90.5t-33.5 -124t33.5 -124t90.5 -90.5t124 -33.5t124 33.5t90.5 90.5t33.5 124t-33.5 124t-90.5 90.5t-124 33.5zM313 90l-88 64q-5 4 -5 10v168q0 5 3.5 8.5t8.5 3.5h48q5 0 8.5 -3.5t3.5 -8.5v-138l64 -46q4 -3 4.5 -8t-2.5 -9
l-28 -38q-3 -4 -8 -5t-9 2z" />
    <glyph glyph-name="clone" unicode="&#xf24d;" 
d="M464 448q20 0 34 -14t14 -34v-288q0 -20 -14 -34t-34 -14h-288q-20 0 -34 14t-14 34v288q0 20 14 34t34 14h288zM176 32q-33 0 -56.5 23.5t-23.5 56.5v208h-48q-20 0 -34 -14t-14 -34v-288q0 -20 14 -34t34 -14h288q20 0 34 14t14 34v48h-208z" />
    <glyph glyph-name="closed-captioning" unicode="&#xf20a;" 
d="M464 384h-416q-20 0 -34 -14t-14 -34v-288q0 -20 14 -34t34 -14h416q20 0 34 14t14 34v288q0 20 -14 34t-34 14zM218 160q2 2 5 2t4 -3l20 -27q3 -4 -1 -8q-19 -21 -48.5 -27.5t-58 2.5t-46.5 32q-19 25 -19 61q0 46 33 72q30 24 72 23.5t67 -25.5q3 -3 1 -6l-17 -30
q-2 -3 -4.5 -3.5t-5.5 1.5q-19 16 -41.5 16.5t-37.5 -12.5t-15 -36t14.5 -37.5t36 -13.5t41.5 19zM409 160q2 2 4.5 2t4.5 -3l19 -27q3 -4 0 -8q-20 -21 -49.5 -27.5t-58 2.5t-46.5 32q-19 25 -19 61q0 46 33 72q30 24 72 23.5t68 -25.5q2 -3 0 -6l-17 -30q-1 -3 -4 -3.5
t-5 1.5q-20 16 -42.5 16.5t-37.5 -12.5t-15 -36t14.5 -37.5t36.5 -13.5t42 19z" />
    <glyph glyph-name="cloud-download-alt" unicode="&#xf381;" horiz-adv-x="640" 
d="M538 221q6 17 6 35q0 40 -28 68t-68 28q-29 0 -53 -16q-21 36 -58 58t-80.5 22t-80.5 -21.5t-58.5 -58.5t-21.5 -80v-8q-42 -15 -69 -52t-27 -84q0 -39 19.5 -72t52.5 -52.5t72 -19.5h368q35 0 64.5 17t46.5 46.5t17 64.5q0 46 -29 81t-73 44zM405 133l-106 -106
q-4 -4 -11 -4t-11 4l-106 106q-7 7 -3 17t15 10h65v112q0 7 4.5 11.5t11.5 4.5h48q7 0 11.5 -4.5t4.5 -11.5v-112h65q11 0 15 -10t-3 -17z" />
    <glyph glyph-name="cloud-download" unicode="&#xf0ed;" horiz-adv-x="640" 
d="M538 221q6 17 6 35q0 40 -28 68t-68 28q-29 0 -53 -16q-21 36 -58 58t-80.5 22t-80.5 -21.5t-58.5 -58.5t-21.5 -80v-8q-42 -15 -69 -52t-27 -84q0 -39 19.5 -72t52.5 -52.5t72 -19.5h368q35 0 64.5 17t46.5 46.5t17 64.5q0 46 -29 81t-73 44zM398 128l-93 -92
q-7 -7 -17 -7t-17 7l-93 92q-7 7 -7 17t7 17l11 11q7 7 17.5 7t17.5 -7l32 -35v126q0 10 7 17t17 7h16q10 0 17 -7t7 -17v-126l33 35q6 7 16.5 7t17.5 -7l11 -11q7 -7 7 -17t-7 -17z" />
    <glyph glyph-name="cloud-upload-alt" unicode="&#xf382;" horiz-adv-x="640" 
d="M538 221q6 17 6 35q0 40 -28 68t-68 28q-29 0 -53 -16q-21 36 -58 58t-80.5 22t-80.5 -21.5t-58.5 -58.5t-21.5 -80v-8q-42 -15 -69 -52t-27 -84q0 -39 19.5 -72t52.5 -52.5t72 -19.5h368q35 0 64.5 17t46.5 46.5t17 64.5q0 46 -29 81t-73 44zM393 160h-65v-112
q0 -7 -4.5 -11.5t-11.5 -4.5h-48q-7 0 -11.5 4.5t-4.5 11.5v112h-65q-11 0 -15 10t3 17l106 106q4 4 11 4t11 -4l106 -106q7 -7 3 -17t-15 -10z" />
    <glyph glyph-name="cloud-upload" unicode="&#xf0ee;" horiz-adv-x="640" 
d="M538 221q6 17 6 35q0 40 -28 68t-68 28q-29 0 -53 -16q-21 36 -58 58t-80.5 22t-80.5 -21.5t-58.5 -58.5t-21.5 -80v-8q-42 -15 -69 -52t-27 -84q0 -39 19.5 -72t52.5 -52.5t72 -19.5h368q35 0 64.5 17t46.5 46.5t17 64.5q0 46 -29 81t-73 44zM398 158l-11 -11
q-7 -7 -17.5 -7t-17.5 7l-32 35v-126q0 -10 -7 -17t-17 -7h-16q-10 0 -17 7t-7 17v126l-32 -35q-7 -7 -17.5 -7t-17.5 7l-11 11q-7 7 -7 17t7 17l93 92q7 7 17 7t17 -7l93 -92q7 -7 7 -17t-7 -17z" />
    <glyph glyph-name="cloud" unicode="&#xf0c2;" horiz-adv-x="640" 
d="M538 221q6 17 6 35q0 40 -28 68t-68 28q-29 0 -53 -16q-21 36 -58 58t-80.5 22t-80.5 -21.5t-58.5 -58.5t-21.5 -80v-8q-42 -15 -69 -52t-27 -84q0 -39 19.5 -72t52.5 -52.5t72 -19.5h368q35 0 64.5 17t46.5 46.5t17 64.5q0 46 -29 81t-73 44z" />
    <glyph glyph-name="code" unicode="&#xf121;" horiz-adv-x="640" 
d="M279 -63l-61 17q-5 2 -7.5 6t-0.5 9l136 470q2 5 6 7.5t9 1.5l61 -18q5 -2 7.5 -6t0.5 -9l-136 -470q-2 -5 -6 -7.5t-9 -0.5zM165 49l43 46q4 4 3.5 9t-3.5 8l-91 80l91 80q3 3 3.5 8t-3.5 9l-43 46q-3 4 -8 4t-9 -3l-144 -135q-4 -4 -4 -9t4 -9l144 -135q4 -3 9 -3t8 4z
M492 48l144 135q4 4 4 9t-4 9l-144 135q-4 3 -8.5 3t-8.5 -4l-43 -46q-4 -4 -3.5 -9t3.5 -8l91 -80l-91 -80q-3 -3 -3.5 -8t3.5 -9l43 -46q3 -4 8 -4t9 3z" />
    <glyph glyph-name="cog" unicode="&#xf013;" 
d="M445 157l42 -25q4 -2 5.5 -6t0.5 -8q-17 -53 -55 -94q-3 -3 -7 -4t-8 1l-42 25q-27 -23 -61 -35v-49q0 -4 -2.5 -7.5t-6.5 -4.5q-55 -12 -110 0q-4 1 -6.5 4.5t-2.5 7.5v49q-34 12 -61 35l-42 -25q-4 -2 -8 -1t-7 4q-38 41 -55 94q-1 4 0.5 8t5.5 6l42 25q-6 35 0 70
l-42 25q-4 2 -5.5 6t-0.5 8q17 53 55 94q3 3 7 4t8 -1l42 -25q27 23 61 35v49q0 4 2.5 7.5t6.5 4.5q55 12 110 0q4 -1 6.5 -4.5t2.5 -7.5v-49q34 -12 61 -35l42 25q4 2 8 1t7 -4q38 -41 55 -94q1 -4 -0.5 -8t-5.5 -6l-42 -25q6 -35 0 -70zM336 192q0 33 -23.5 56.5
t-56.5 23.5t-56.5 -23.5t-23.5 -56.5t23.5 -56.5t56.5 -23.5t56.5 23.5t23.5 56.5z" />
    <glyph glyph-name="cogs" unicode="&#xf085;" horiz-adv-x="640" 
d="M512 257l-8 -14q-2 -4 -6.5 -5.5t-8.5 -0.5q-18 7 -32 19q-4 3 -4.5 7.5t1.5 8.5l8 14q-10 12 -16 27h-16q-5 0 -8.5 3t-3.5 8q-4 18 -1 37q1 4 4.5 7t8.5 3h16q6 15 16 28l-8 14q-2 4 -1.5 8.5t4.5 7.5q14 11 32 18q4 2 8.5 0.5t6.5 -5.5l8 -15q16 3 32 0l8 15
q2 4 6.5 5.5t8.5 -0.5q18 -6 32 -18q4 -3 4.5 -7.5t-1.5 -8.5l-8 -14q10 -13 16 -28h16q5 0 8.5 -3t3.5 -7q4 -19 0 -37q0 -5 -3.5 -8t-8.5 -3h-16q-6 -15 -16 -27l8 -14q2 -4 1.5 -8.5t-4.5 -7.5q-14 -12 -32 -19q-4 -1 -8.5 0.5t-6.5 5.5l-8 14q-16 -3 -32 0zM502 316
q18 -14 36.5 -8.5t24 24t-8.5 37.5q-18 14 -36.5 8t-24 -24.5t8.5 -36.5zM386 162l34 -17q8 -4 11 -12.5t-1 -16.5q-9 -26 -42 -66q-6 -6 -14.5 -7.5t-15.5 2.5l-29 17q-25 -21 -55 -32v-34q0 -8 -6 -15t-14 -8q-38 -7 -76 0q-9 1 -14.5 8t-5.5 15v34q-31 11 -55 32l-29 -17
q-8 -4 -16.5 -2.5t-13.5 7.5q-32 39 -42 66q-4 8 -1 16.5t11 12.5l33 17q-6 32 0 63l-33 17q-8 5 -11 13t1 16q10 27 42 66q5 7 13.5 8.5t16.5 -3.5l29 -16q25 21 55 31v34q0 9 5.5 15.5t14.5 7.5q38 7 76 1q8 -2 14 -8.5t6 -15.5v-34q30 -11 55 -31l29 16q7 5 15.5 3.5
t14.5 -8.5q32 -38 42 -66q3 -8 0.5 -16t-10.5 -13l-34 -17q6 -31 0 -63zM269 141q21 27 19 57q-2 27 -21 46.5t-47 21.5q-30 2 -57 -20q-21 -27 -19 -57q1 -27 20.5 -46.5t46.5 -20.5q30 -2 58 19zM512 -42l-8 -14q-2 -4 -6.5 -5.5t-8.5 -0.5q-18 7 -32 19q-4 3 -4.5 7.5
t1.5 8.5l8 14q-10 12 -16 27h-16q-5 0 -8.5 3t-3.5 8q-4 18 -1 37q1 4 4.5 7t8.5 3h16q6 15 16 28l-8 14q-2 4 -1.5 8.5t4.5 7.5q14 12 32 18q4 2 8.5 0.5t6.5 -5.5l8 -14q16 2 32 -1l8 15q2 4 6.5 5.5t8.5 -0.5q18 -6 32 -18q4 -3 4.5 -7.5t-1.5 -8.5l-8 -14q10 -13 16 -28
h16q5 0 8.5 -3t3.5 -7q4 -19 0 -37q0 -5 -3.5 -8t-8.5 -3h-16q-6 -15 -16 -27l8 -14q2 -4 1.5 -8.5t-4.5 -7.5q-14 -12 -32 -19q-4 -1 -8.5 0.5t-6.5 5.5l-8 14q-16 -3 -32 0zM502 17q18 -14 36.5 -8t24 24t-8.5 37q-18 14 -36.5 8t-24 -24.5t8.5 -36.5z" />
    <glyph glyph-name="coins" unicode="&#xf51e;" 
d="M0 43v-43q0 -17 26 -32t70 -23.5t96 -8.5t96 8.5t70 23.5t26 32v43q-30 -21 -83 -33q-50 -10 -109 -10t-109 10q-53 12 -83 33zM320 320q52 0 96 8.5t70 23.5t26 32t-26 32t-70 23.5t-96 8.5t-96 -8.5t-70 -23.5t-26 -32t26 -32t70 -23.5t96 -8.5zM0 148v-52
q0 -17 26 -32t70 -23.5t96 -8.5t96 8.5t70 23.5t26 32v52q-30 -25 -83 -39q-51 -13 -109 -13t-109 13q-53 14 -83 39zM416 137q44 8 70 23t26 32v43q-33 -24 -96 -35v-63zM192 288q-52 0 -96 -11t-70 -29t-26 -40t26 -40t70 -29t96 -11t96 11t70 29t26 40t-26 40t-70 29
t-96 11zM411 232q46 8 73.5 23t27.5 33v43q-26 -18 -70 -29q-40 -11 -91 -13q48 -23 60 -57z" />
    <glyph glyph-name="columns" unicode="&#xf0db;" 
d="M464 416h-416q-20 0 -34 -14t-14 -34v-352q0 -20 14 -34t34 -14h416q20 0 34 14t14 34v352q0 20 -14 34t-34 14zM224 32h-160v256h160v-256zM448 32h-160v256h160v-256z" />
    <glyph glyph-name="comment-alt-dots" unicode="&#xf4a3;" 
d="M448 448h-384q-26 0 -45 -19t-19 -45v-288q0 -26 19 -45t45 -19h96v-84q0 -7 6.5 -10.5t12.5 0.5l125 94h144q26 0 45 19t19 45v288q0 26 -19 45t-45 19zM128 208q-13 0 -22.5 9.5t-9.5 22.5t9.5 22.5t22.5 9.5t22.5 -9.5t9.5 -22.5t-9.5 -22.5t-22.5 -9.5zM256 208
q-13 0 -22.5 9.5t-9.5 22.5t9.5 22.5t22.5 9.5t22.5 -9.5t9.5 -22.5t-9.5 -22.5t-22.5 -9.5zM384 208q-13 0 -22.5 9.5t-9.5 22.5t9.5 22.5t22.5 9.5t22.5 -9.5t9.5 -22.5t-9.5 -22.5t-22.5 -9.5z" />
    <glyph glyph-name="comment-alt-slash" unicode="&#xf4a9;" horiz-adv-x="640" 
d="M64 96q0 -26 19 -45t45 -19h96v-84q0 -7 6.5 -10.5t12.5 0.5l125 94h2l-306 237v-173zM634 -10l-78 60q20 19 20 46v288q0 26 -19 45t-45 19h-384q-16 0 -29.5 -7.5t-22.5 -19.5l-30 24q-6 4 -12.5 3t-10.5 -6l-20 -25q-4 -6 -3 -12.5t6 -10.5l589 -454q5 -5 11.5 -4
t10.5 6l20 26q4 5 3 11.5t-6 10.5z" />
    <glyph glyph-name="comment-alt" unicode="&#xf27a;" 
d="M448 448h-384q-26 0 -45 -19t-19 -45v-288q0 -26 19 -45t45 -19h96v-84q0 -7 6.5 -10.5t12.5 0.5l125 94h144q26 0 45 19t19 45v288q0 26 -19 45t-45 19z" />
    <glyph glyph-name="comment-dots" unicode="&#xf4ad;" 
d="M256 416q-70 0 -128.5 -28t-93 -75.5t-34.5 -104.5q0 -37 15 -70t42 -61q-8 -31 -32 -66q-14 -20 -23 -29q-3 -4 -1 -9t7 -5q44 0 86 18q29 13 55 33q51 -19 107 -19q70 0 128.5 28t93 75.5t34.5 104.5t-34.5 104.5t-93 75.5t-128.5 28zM128 176q-13 0 -22.5 9.5
t-9.5 22.5t9.5 22.5t22.5 9.5t22.5 -9.5t9.5 -22.5t-9.5 -22.5t-22.5 -9.5zM256 176q-13 0 -22.5 9.5t-9.5 22.5t9.5 22.5t22.5 9.5t22.5 -9.5t9.5 -22.5t-9.5 -22.5t-22.5 -9.5zM384 176q-13 0 -22.5 9.5t-9.5 22.5t9.5 22.5t22.5 9.5t22.5 -9.5t9.5 -22.5t-9.5 -22.5
t-22.5 -9.5z" />
    <glyph glyph-name="comment-slash" unicode="&#xf4b3;" horiz-adv-x="640" 
d="M64 208q0 -37 15 -70t42 -61q-8 -30 -31 -64q-11 -18 -24 -31v-1q-3 -3 -1 -8t7 -5q44 0 86 18q29 13 55 33q51 -19 107 -19q40 0 78 10l-325 252q-9 -28 -9 -54zM634 -10l-115 88q27 28 42 61t15 69q0 57 -34.5 104.5t-93 75.5t-128.5 28q-48 0 -91.5 -14t-77.5 -39
l-105 82q-6 4 -12.5 3t-10.5 -6l-20 -25q-4 -6 -3 -12.5t6 -10.5l589 -454q5 -5 11.5 -4t10.5 6l20 26q4 5 3 11.5t-6 10.5z" />
    <glyph glyph-name="comment" unicode="&#xf075;" 
d="M256 416q-70 0 -128.5 -28t-93 -75.5t-34.5 -104.5q0 -37 15 -70t42 -61q-8 -31 -32 -66q-14 -20 -23 -29q-3 -4 -1 -9t7 -5q44 0 86 18q29 13 55 33q51 -19 107 -19q70 0 128.5 28t93 75.5t34.5 104.5t-34.5 104.5t-93 75.5t-128.5 28z" />
    <glyph glyph-name="comments-alt" unicode="&#xf4b6;" horiz-adv-x="576" 
d="M416 224v160q0 26 -19 45t-45 19h-288q-26 0 -45 -19t-19 -45v-160q0 -26 19 -45t45 -19v-54q0 -6 5.5 -9t9.5 1l83 62h190q26 0 45 19t19 45zM512 288h-64v-64q0 -40 -28 -68t-68 -28h-160v-64q0 -26 19 -45t45 -19h126l83 -62q4 -4 9.5 -1t5.5 9v54h32q26 0 45 19
t19 45v160q0 26 -19 45t-45 19z" />
    <glyph glyph-name="comments" unicode="&#xf086;" horiz-adv-x="576" 
d="M416 256q0 43 -28 80t-75.5 58.5t-104.5 21.5t-104.5 -21.5t-75.5 -58.5t-28 -80q0 -51 38 -92q-8 -19 -23 -38q-8 -12 -12 -16t-2 -9t7 -5q46 0 89 25q51 -25 111 -25q57 0 104.5 21.5t75.5 58.5t28 80zM538 36q38 41 38 91t-36 90.5t-93 58.5q1 -9 1 -20
q0 -52 -32.5 -96t-87.5 -70t-120 -26q-14 0 -32 2q24 -44 76 -71t116 -27q60 0 111 25q43 -25 89 -25q5 0 7 5t-2 9t-12 15q-15 20 -23 39z" />
    <glyph glyph-name="compass-slash" unicode="&#xf5e9;" horiz-adv-x="640" 
d="M634 -10l-100 77q34 58 34 125t-33.5 124t-90.5 90.5t-124 33.5q-50 0 -95.5 -19t-79.5 -53l-100 77q-5 4 -11.5 3t-10.5 -6l-20 -25q-4 -6 -3 -12.5t6 -10.5l589 -455q5 -4 11.5 -3t10.5 6l20 25q4 6 3 12.5t-6 10.5zM446 292l-53 -116l-106 82l133 60q8 4 15.5 0.5
t11 -11t-0.5 -15.5zM220 66q-8 -4 -15.5 -0.5t-11 11t0.5 15.5l26 56l-139 108q-9 -33 -9 -64q0 -67 33.5 -124t90.5 -90.5t123 -33.5t123 32l-155 120z" />
    <glyph glyph-name="compass" unicode="&#xf14e;" horiz-adv-x="496" 
d="M225 215q-9 -10 -9 -23t9.5 -22.5t22.5 -9.5t22.5 9.5t9.5 22.5t-9.5 22.5t-22.5 9.5t-23 -9zM248 440q-67 0 -124 -33.5t-90.5 -90.5t-33.5 -124t33.5 -124t90.5 -90.5t124 -33.5t124 33.5t90.5 90.5t33.5 124t-33.5 124t-90.5 90.5t-124 33.5zM374 292l-66 -144
q-5 -11 -16 -16l-144 -66q-8 -4 -15.5 -0.5t-11 11t0.5 15.5l66 144q5 11 16 16l144 66q8 4 15.5 0.5t11 -11t-0.5 -15.5z" />
    <glyph glyph-name="compress-alt" unicode="&#xf422;" horiz-adv-x="448" 
d="M5 21l99 99l-33 31q-7 7 -7 17t7 17t17 7h112q10 0 17 -7t7 -17v-112q0 -10 -7 -17t-17 -7t-17 7l-31 33l-99 -99q-5 -5 -11.5 -5t-11.5 5l-25 25q-5 5 -5 11.5t5 11.5zM443 363l-99 -99l33 -31q7 -7 7 -17t-7 -17t-17 -7h-112q-10 0 -17 7t-7 17v112q0 10 7 17t17 7
t17 -7l31 -33l99 99q5 5 11.5 5t11.5 -5l25 -25q5 -5 5 -11.5t-5 -11.5z" />
    <glyph glyph-name="compress-arrows-alt" unicode="&#xf78c;" 
d="M200 160h-112q-10 0 -17 -7t-7 -17t7 -17l33 -31l-99 -99q-5 -5 -5 -11.5t5 -11.5l25 -25q5 -5 11.5 -5t11.5 5l99 99l31 -33q7 -7 17 -7t17 7t7 17v112q0 10 -7 17t-17 7zM312 224h112q10 0 17 7t7 17t-7 17l-33 31l99 99q5 5 5 11.5t-5 11.5l-25 25q-5 5 -11.5 5
t-11.5 -5l-99 -99l-31 33q-7 7 -17 7t-17 -7t-7 -17v-112q0 -10 7 -17t17 -7zM408 88l33 31q7 7 7 17t-7 17t-17 7h-112q-10 0 -17 -7t-7 -17v-112q0 -10 7 -17t17 -7t17 7l31 33l99 -99q5 -5 11.5 -5t11.5 5l25 25q5 5 5 11.5t-5 11.5zM183 377l-31 -33l-99 99
q-5 5 -11.5 5t-11.5 -5l-25 -25q-5 -5 -5 -11.5t5 -11.5l99 -99l-33 -31q-7 -7 -7 -17t7 -17t17 -7h112q10 0 17 7t7 17v112q0 10 -7 17t-17 7t-17 -7z" />
    <glyph glyph-name="compress-wide" unicode="&#xf326;" 
d="M500 224h-124q-10 0 -17 7t-7 17v124q0 5 3.5 8.5t8.5 3.5h40q5 0 8.5 -3.5t3.5 -8.5v-84h84q5 0 8.5 -3.5t3.5 -8.5v-40q0 -5 -3.5 -8.5t-8.5 -3.5zM160 248v124q0 5 -3.5 8.5t-8.5 3.5h-40q-5 0 -8.5 -3.5t-3.5 -8.5v-84h-84q-5 0 -8.5 -3.5t-3.5 -8.5v-40
q0 -5 3.5 -8.5t8.5 -3.5h124q10 0 17 7t7 17zM160 12v124q0 10 -7 17t-17 7h-124q-5 0 -8.5 -3.5t-3.5 -8.5v-40q0 -5 3.5 -8.5t8.5 -3.5h84v-84q0 -5 3.5 -8.5t8.5 -3.5h40q5 0 8.5 3.5t3.5 8.5zM416 12v84h84q5 0 8.5 3.5t3.5 8.5v40q0 5 -3.5 8.5t-8.5 3.5h-124
q-10 0 -17 -7t-7 -17v-124q0 -5 3.5 -8.5t8.5 -3.5h40q5 0 8.5 3.5t3.5 8.5z" />
    <glyph glyph-name="compress" unicode="&#xf066;" horiz-adv-x="448" 
d="M436 256h-124q-10 0 -17 7t-7 17v124q0 5 3.5 8.5t8.5 3.5h40q5 0 8.5 -3.5t3.5 -8.5v-84h84q5 0 8.5 -3.5t3.5 -8.5v-40q0 -5 -3.5 -8.5t-8.5 -3.5zM160 280v124q0 5 -3.5 8.5t-8.5 3.5h-40q-5 0 -8.5 -3.5t-3.5 -8.5v-84h-84q-5 0 -8.5 -3.5t-3.5 -8.5v-40
q0 -5 3.5 -8.5t8.5 -3.5h124q10 0 17 7t7 17zM160 -20v124q0 10 -7 17t-17 7h-124q-5 0 -8.5 -3.5t-3.5 -8.5v-40q0 -5 3.5 -8.5t8.5 -3.5h84v-84q0 -5 3.5 -8.5t8.5 -3.5h40q5 0 8.5 3.5t3.5 8.5zM352 -20v84h84q5 0 8.5 3.5t3.5 8.5v40q0 5 -3.5 8.5t-8.5 3.5h-124
q-10 0 -17 -7t-7 -17v-124q0 -5 3.5 -8.5t8.5 -3.5h40q5 0 8.5 3.5t3.5 8.5z" />
    <glyph glyph-name="concierge-bell" unicode="&#xf562;" 
d="M288 317v19h16q7 0 11.5 4.5t4.5 11.5v16q0 7 -4.5 11.5t-11.5 4.5h-96q-7 0 -11.5 -4.5t-4.5 -11.5v-16q0 -7 4.5 -11.5t11.5 -4.5h16v-19q-54 -7 -98 -38.5t-69 -79.5t-25 -103h448q0 55 -25 103t-69 79.5t-98 38.5zM496 64h-480q-7 0 -11.5 -4.5t-4.5 -11.5v-32
q0 -7 4.5 -11.5t11.5 -4.5h480q7 0 11.5 4.5t4.5 11.5v32q0 7 -4.5 11.5t-11.5 4.5z" />
    <glyph glyph-name="container-storage" unicode="&#xf4b7;" horiz-adv-x="640" 
d="M640 368v32q0 7 -4.5 11.5t-11.5 4.5h-608q-7 0 -11.5 -4.5t-4.5 -11.5v-32q0 -7 4.5 -11.5t11.5 -4.5v-320q-7 0 -11.5 -4.5t-4.5 -11.5v-32q0 -7 4.5 -11.5t11.5 -4.5h608q7 0 11.5 4.5t4.5 11.5v32q0 7 -4.5 11.5t-11.5 4.5v320q7 0 11.5 4.5t4.5 11.5zM448 32h-32
v320h32v-320zM192 352h32v-320h-32v320zM336 32h-32v320h32v-320zM80 352h32v-320h-32v320zM560 32h-32v320h32v-320z" />
    <glyph glyph-name="cookie-bite" unicode="&#xf564;" 
d="M511 192q-35 1 -64 18t-46 46.5t-17 63.5q-34 0 -63.5 17t-46.5 46t-18 63q-42 7 -80 -12l-69 -36q-38 -19 -57 -57l-36 -69q-19 -39 -12 -81l12 -76q6 -43 37 -73l55 -55q30 -31 72 -37l77 -12q42 -7 81 12l69 36q38 19 58 57l35 69q19 38 13 80zM176 80
q-13 0 -22.5 9.5t-9.5 22.5t9.5 22.5t22.5 9.5t22.5 -9.5t9.5 -22.5t-9.5 -22.5t-22.5 -9.5zM208 240q-13 0 -22.5 9.5t-9.5 22.5t9.5 22.5t22.5 9.5t22.5 -9.5t9.5 -22.5t-9.5 -22.5t-22.5 -9.5zM368 112q-13 0 -22.5 9.5t-9.5 22.5t9.5 22.5t22.5 9.5t22.5 -9.5t9.5 -22.5
t-9.5 -22.5t-22.5 -9.5z" />
    <glyph glyph-name="cookie" unicode="&#xf563;" 
d="M510 193l-12 76q-6 43 -37 73l-55 55q-30 31 -72 37l-77 12q-42 7 -81 -12l-69 -36q-38 -19 -57 -57l-36 -69q-19 -39 -12 -81l12 -76q6 -43 37 -73l55 -55q30 -31 72 -37l77 -12q42 -7 81 12l69 36q38 19 57 57l36 69q19 39 12 81zM176 80q-13 0 -22.5 9.5t-9.5 22.5
t9.5 22.5t22.5 9.5t22.5 -9.5t9.5 -22.5t-9.5 -22.5t-22.5 -9.5zM208 240q-13 0 -22.5 9.5t-9.5 22.5t9.5 22.5t22.5 9.5t22.5 -9.5t9.5 -22.5t-9.5 -22.5t-22.5 -9.5zM368 112q-13 0 -22.5 9.5t-9.5 22.5t9.5 22.5t22.5 9.5t22.5 -9.5t9.5 -22.5t-9.5 -22.5t-22.5 -9.5z
" />
    <glyph glyph-name="copy" unicode="&#xf0c5;" horiz-adv-x="448" 
d="M320 0v-40q0 -10 -7 -17t-17 -7h-272q-10 0 -17 7t-7 17v368q0 10 7 17t17 7h72v-296q0 -23 16.5 -39.5t39.5 -16.5h168zM320 344v104h-168q-10 0 -17 -7t-7 -17v-368q0 -10 7 -17t17 -7h272q10 0 17 7t7 17v264h-104q-10 0 -17 7t-7 17zM441 375l-66 66q-7 7 -17 7h-6
v-96h96v6q0 10 -7 17z" />
    <glyph glyph-name="copyright" unicode="&#xf1f9;" 
d="M256 440q-67 0 -124 -33.5t-90.5 -90.5t-33.5 -124t33.5 -124t90.5 -90.5t124 -33.5t124 33.5t90.5 90.5t33.5 124t-33.5 124t-90.5 90.5t-124 33.5zM373 93q-10 -12 -29 -23q-37 -22 -81 -22q-41 0 -74 19t-51.5 52t-18.5 73.5t19 73.5t51.5 51.5t74 18.5t75.5 -18
q18 -10 27 -20q3 -3 3 -7.5t-2 -7.5l-22 -35q-3 -4 -8.5 -5t-9.5 3q-7 6 -18 12q-22 12 -44 12q-34 0 -54 -21.5t-20 -54t19 -55.5q20 -25 55 -25q24 0 47 14q12 8 19 15q3 4 9 3.5t9 -4.5l25 -34q2 -3 2 -7.5t-3 -7.5z" />
    <glyph glyph-name="credit-card-blank" unicode="&#xf389;" horiz-adv-x="576" 
d="M528 408h-480q-20 0 -34 -14t-14 -34v-352q0 -20 14 -34t34 -14h480q20 0 34 14t14 34v352q0 20 -14 34t-34 14zM160 44q0 -5 -3.5 -8.5t-8.5 -3.5h-72q-5 0 -8.5 3.5t-3.5 8.5v40q0 5 3.5 8.5t8.5 3.5h72q5 0 8.5 -3.5t3.5 -8.5v-40zM352 44q0 -5 -3.5 -8.5t-8.5 -3.5
h-136q-5 0 -8.5 3.5t-3.5 8.5v40q0 5 3.5 8.5t8.5 3.5h136q5 0 8.5 -3.5t3.5 -8.5v-40z" />
    <glyph glyph-name="credit-card-front" unicode="&#xf38a;" horiz-adv-x="576" 
d="M528 416h-480q-20 0 -34 -14t-14 -34v-352q0 -20 14 -34t34 -14h480q20 0 34 14t14 34v352q0 20 -14 34t-34 14zM192 180q0 5 3.5 8.5t8.5 3.5h64q5 0 8.5 -3.5t3.5 -8.5v-40q0 -5 -3.5 -8.5t-8.5 -3.5h-64q-5 0 -8.5 3.5t-3.5 8.5v40zM160 44q0 -5 -3.5 -8.5t-8.5 -3.5
h-72q-5 0 -8.5 3.5t-3.5 8.5v8q0 5 3.5 8.5t8.5 3.5h72q5 0 8.5 -3.5t3.5 -8.5v-8zM176 140q0 -5 -3.5 -8.5t-8.5 -3.5h-88q-5 0 -8.5 3.5t-3.5 8.5v40q0 5 3.5 8.5t8.5 3.5h88q5 0 8.5 -3.5t3.5 -8.5v-40zM352 44q0 -5 -3.5 -8.5t-8.5 -3.5h-136q-5 0 -8.5 3.5t-3.5 8.5v8
q0 5 3.5 8.5t8.5 3.5h136q5 0 8.5 -3.5t3.5 -8.5v-8zM384 140q0 -5 -3.5 -8.5t-8.5 -3.5h-64q-5 0 -8.5 3.5t-3.5 8.5v40q0 5 3.5 8.5t8.5 3.5h64q5 0 8.5 -3.5t3.5 -8.5v-40zM512 140q0 -5 -3.5 -8.5t-8.5 -3.5h-88q-5 0 -8.5 3.5t-3.5 8.5v40q0 5 3.5 8.5t8.5 3.5h88
q5 0 8.5 -3.5t3.5 -8.5v-40zM512 280q0 -10 -7 -17t-17 -7h-80q-10 0 -17 7t-7 17v48q0 10 7 17t17 7h80q10 0 17 -7t7 -17v-48z" />
    <glyph glyph-name="credit-card" unicode="&#xf09d;" horiz-adv-x="576" 
d="M0 16q0 -20 14 -34t34 -14h480q20 0 34 14t14 34v176h-576v-176zM192 84q0 5 3.5 8.5t8.5 3.5h136q5 0 8.5 -3.5t3.5 -8.5v-40q0 -5 -3.5 -8.5t-8.5 -3.5h-136q-5 0 -8.5 3.5t-3.5 8.5v40zM64 84q0 5 3.5 8.5t8.5 3.5h72q5 0 8.5 -3.5t3.5 -8.5v-40q0 -5 -3.5 -8.5
t-8.5 -3.5h-72q-5 0 -8.5 3.5t-3.5 8.5v40zM576 368v-48h-576v48q0 20 14 34t34 14h480q20 0 34 -14t14 -34z" />
    <glyph glyph-name="crosshairs" unicode="&#xf05b;" 
d="M500 224h-30q-11 70 -61.5 120.5t-120.5 61.5v30q0 5 -3.5 8.5t-8.5 3.5h-40q-5 0 -8.5 -3.5t-3.5 -8.5v-30q-70 -11 -120.5 -61.5t-61.5 -120.5h-30q-5 0 -8.5 -3.5t-3.5 -8.5v-40q0 -5 3.5 -8.5t8.5 -3.5h30q11 -70 61.5 -120.5t120.5 -61.5v-30q0 -5 3.5 -8.5
t8.5 -3.5h40q5 0 8.5 3.5t3.5 8.5v30q70 11 120.5 61.5t61.5 120.5h30q5 0 8.5 3.5t3.5 8.5v40q0 5 -3.5 8.5t-8.5 3.5zM288 43v41q0 5 -3.5 8.5t-8.5 3.5h-40q-5 0 -8.5 -3.5t-3.5 -8.5v-41q-44 10 -75.5 41.5t-41.5 75.5h41q5 0 8.5 3.5t3.5 8.5v40q0 5 -3.5 8.5t-8.5 3.5
h-41q10 44 41.5 75.5t75.5 41.5v-41q0 -5 3.5 -8.5t8.5 -3.5h40q5 0 8.5 3.5t3.5 8.5v41q44 -10 75.5 -41.5t41.5 -75.5h-41q-5 0 -8.5 -3.5t-3.5 -8.5v-40q0 -5 3.5 -8.5t8.5 -3.5h41q-10 -44 -41.5 -75.5t-75.5 -41.5zM288 192q0 -13 -9.5 -22.5t-22.5 -9.5t-22.5 9.5
t-9.5 22.5t9.5 22.5t22.5 9.5t22.5 -9.5t9.5 -22.5z" />
    <glyph glyph-name="cubes" unicode="&#xf1b3;" 
d="M489 198l-97 36v109q0 11 -6.5 20t-16.5 13l-100 38q-13 5 -26 0l-100 -38q-10 -4 -16.5 -13t-6.5 -20v-109l-97 -36q-10 -4 -16.5 -13.5t-6.5 -20.5v-110q0 -10 5.5 -19t14.5 -13l100 -50q16 -8 32 0l104 52l104 -52q16 -8 32 0l100 50q9 4 14.5 13t5.5 19v110
q0 11 -6.5 20.5t-16.5 13.5zM358 233l-85 -32v69l85 37v-74zM154 344l102 38l102 -38v-1l-102 -41l-102 41v1zM238 53l-85 -43v79l85 39v-75zM238 165l-102 -42l-102 42v0l102 39l102 -39v0zM478 53l-85 -43v79l85 39v-75zM478 165l-102 -42l-102 42v0l102 39l102 -39v0z
" />
    <glyph glyph-name="cut" unicode="&#xf0c4;" horiz-adv-x="448" 
d="M278 192l166 166q4 4 4 9t-4 8q-24 25 -59 25t-59 -25l-116 -115l-25 25q7 17 7 35q0 40 -28 68t-68 28t-68 -28t-28 -68t28 -68t68 -28q7 0 13 1l33 -33l-33 -33q-6 1 -13 1q-40 0 -68 -28t-28 -68t28 -68t68 -28t68 28t28 68q0 18 -7 35l25 25l116 -115q24 -25 59 -25
t59 25q4 3 4 8t-4 9zM96 288q-13 0 -22.5 9.5t-9.5 22.5t9.5 22.5t22.5 9.5t22.5 -9.5t9.5 -22.5t-9.5 -22.5t-22.5 -9.5zM96 32q-13 0 -22.5 9.5t-9.5 22.5t9.5 22.5t22.5 9.5t22.5 -9.5t9.5 -22.5t-9.5 -22.5t-22.5 -9.5z" />
    <glyph glyph-name="dagger" unicode="&#xf6cb;" horiz-adv-x="384" 
d="M336 320h-112v112q0 7 -4.5 11.5t-11.5 4.5h-32q-7 0 -11.5 -4.5t-4.5 -11.5v-112h-112q-20 0 -34 -14t-14 -34t14 -34t34 -14q15 0 27.5 9t17.5 23h198q5 -14 17.5 -23t27.5 -9q20 0 34 14t14 34t-14 34t-34 14zM128 19l51 -76q4 -7 13 -7t13 7l51 76v205h-128v-205z
" />
    <glyph glyph-name="database" unicode="&#xf1c0;" horiz-adv-x="448" 
d="M448 375v-46q0 -20 -30 -36.5t-81.5 -26.5t-112.5 -10t-112.5 10t-81.5 26.5t-30 36.5v46q0 20 30 36.5t81.5 26.5t112.5 10t112.5 -10t81.5 -26.5t30 -36.5zM448 272v-103q0 -20 -30 -36.5t-81.5 -26.5t-112.5 -10t-112.5 10t-81.5 26.5t-30 36.5v103q35 -24 97 -37
q58 -12 127 -12t127 12q62 13 97 37zM448 112v-103q0 -20 -30 -36.5t-81.5 -26.5t-112.5 -10t-112.5 10t-81.5 26.5t-30 36.5v103q35 -24 97 -37q58 -12 127 -12t127 12q62 13 97 37z" />
    <glyph glyph-name="directions" unicode="&#xf5eb;" 
d="M503 215l-224 224q-10 9 -23 9t-23 -9l-224 -224q-9 -10 -9 -23t9 -23l224 -224q10 -9 23 -9t23 9l224 224q9 10 9 23t-9 23zM402 202l-85 -78q-3 -3 -8 -1t-5 7v54h-96v-64q0 -3 -2.5 -5.5t-5.5 -2.5h-32q-3 0 -5.5 2.5t-2.5 5.5v80q0 13 9.5 22.5t22.5 9.5h112v54
q0 5 5 7t8 -1l85 -78q2 -2 2 -6t-2 -6z" />
    <glyph glyph-name="dolly-empty" unicode="&#xf473;" horiz-adv-x="576" 
d="M575 122l-10 30q-2 6 -8 9t-12 1l-214 -71q-13 17 -32 26.5t-41 10.5l-100 298q-3 10 -11.5 16t-18.5 6h-112q-7 0 -11.5 -4.5t-4.5 -11.5v-32q0 -7 4.5 -11.5t11.5 -4.5h89l92 -277q-20 -16 -30 -39.5t-6 -50.5q5 -30 26.5 -52t51 -27.5t55.5 6t41.5 35t16.5 51.5
l213 71q6 3 9 8.5t1 12.5zM256 -16q-20 0 -34 14t-14 34t14 34t34 14t34 -14t14 -34t-14 -34t-34 -14z" />
    <glyph glyph-name="dolly-flatbed-alt" unicode="&#xf475;" horiz-adv-x="640" 
d="M624 64h-496v368q0 7 -4.5 11.5t-11.5 4.5h-96q-7 0 -11.5 -4.5t-4.5 -11.5v-32q0 -7 4.5 -11.5t11.5 -4.5h48v-368q0 -7 4.5 -11.5t11.5 -4.5h83q-3 -8 -3 -16q0 -20 14 -34t34 -14t34 14t14 34q0 7 -3 16h198q-3 -8 -3 -16q0 -20 14 -34t34 -14t34 14t14 34q0 7 -3 16
h83q7 0 11.5 4.5t4.5 11.5v32q0 7 -4.5 11.5t-11.5 4.5zM208 128h160q7 0 11.5 4.5t4.5 11.5v256q0 7 -4.5 11.5t-11.5 4.5h-160q-7 0 -11.5 -4.5t-4.5 -11.5v-256q0 -7 4.5 -11.5t11.5 -4.5zM432 288h96q7 0 11.5 4.5t4.5 11.5v96q0 7 -4.5 11.5t-11.5 4.5h-96
q-7 0 -11.5 -4.5t-4.5 -11.5v-96q0 -7 4.5 -11.5t11.5 -4.5zM432 128h160q7 0 11.5 4.5t4.5 11.5v96q0 7 -4.5 11.5t-11.5 4.5h-160q-7 0 -11.5 -4.5t-4.5 -11.5v-96q0 -7 4.5 -11.5t11.5 -4.5z" />
    <glyph glyph-name="dolly-flatbed-empty" unicode="&#xf476;" horiz-adv-x="640" 
d="M624 64h-496v368q0 7 -4.5 11.5t-11.5 4.5h-96q-7 0 -11.5 -4.5t-4.5 -11.5v-32q0 -7 4.5 -11.5t11.5 -4.5h48v-368q0 -7 4.5 -11.5t11.5 -4.5h83q-3 -8 -3 -16q0 -20 14 -34t34 -14t34 14t14 34q0 7 -3 16h198q-3 -8 -3 -16q0 -20 14 -34t34 -14t34 14t14 34q0 7 -3 16
h83q7 0 11.5 4.5t4.5 11.5v32q0 7 -4.5 11.5t-11.5 4.5z" />
    <glyph glyph-name="dolly-flatbed" unicode="&#xf474;" horiz-adv-x="640" 
d="M208 128h384q7 0 11.5 4.5t4.5 11.5v256q0 7 -4.5 11.5t-11.5 4.5h-144v-128l-48 32l-48 -32v128h-144q-7 0 -11.5 -4.5t-4.5 -11.5v-256q0 -7 4.5 -11.5t11.5 -4.5zM624 64h-496v368q0 7 -4.5 11.5t-11.5 4.5h-96q-7 0 -11.5 -4.5t-4.5 -11.5v-32q0 -7 4.5 -11.5
t11.5 -4.5h48v-368q0 -7 4.5 -11.5t11.5 -4.5h83q-3 -8 -3 -16q0 -20 14 -34t34 -14t34 14t14 34q0 7 -3 16h198q-3 -8 -3 -16q0 -20 14 -34t34 -14t34 14t14 34q0 7 -3 16h83q7 0 11.5 4.5t4.5 11.5v32q0 7 -4.5 11.5t-11.5 4.5z" />
    <glyph glyph-name="dolly" unicode="&#xf472;" horiz-adv-x="576" 
d="M294 170q27 -7 50 -24l161 53q6 2 9 8t1 13l-60 181q-2 6 -8 9t-12 1l-61 -20l33 -100l-61 -20l-33 99l-62 -20q-6 -2 -9 -8t-1 -12zM575 122l-10 30q-2 6 -8 9t-12 1l-214 -71q-13 17 -32 26.5t-41 10.5l-100 298q-3 10 -11.5 16t-18.5 6h-112q-7 0 -11.5 -4.5
t-4.5 -11.5v-32q0 -7 4.5 -11.5t11.5 -4.5h89l92 -277q-20 -16 -30 -39.5t-6 -50.5q5 -30 26.5 -52t51 -27.5t55.5 6t41.5 35t16.5 51.5l213 71q6 3 9 8.5t1 12.5zM256 -16q-20 0 -34 14t-14 34t14 34t34 14t34 -14t14 -34t-14 -34t-34 -14z" />
    <glyph glyph-name="donate" unicode="&#xf4b9;" 
d="M256 32q57 0 104.5 28t75.5 75.5t28 104.5t-28 104.5t-75.5 75.5t-104.5 28t-104.5 -28t-75.5 -75.5t-28 -104.5t28 -104.5t75.5 -75.5t104.5 -28zM234 351v16q0 7 5 12t11 5h12q6 0 11 -5t5 -12v-17q24 -1 43 -15q4 -3 4.5 -8.5t-3.5 -8.5l-16 -16q-6 -6 -14 -0.5
t-18 4.5h-39q-6 1 -11 -4.5t-5 -12.5t3.5 -12t8.5 -6l62 -19q20 -6 32 -22.5t12 -37.5q0 -26 -17 -44t-42 -19v-16q0 -7 -5 -12t-12 -5h-11q-7 0 -11.5 5t-4.5 12v17q-24 1 -43 15q-5 3 -5 8.5t4 8.5l16 16q6 6 14 1t18 -5h39q6 0 11 5t5 12t-3.5 12t-8.5 6l-63 19
q-19 6 -31 22.5t-12 37.5q0 26 17 44t42 19zM480 96h-32q-30 -39 -73 -64h63q4 0 7 -2.5t3 -5.5v-16q0 -3 -3 -5.5t-7 -2.5h-364q-4 0 -7 2.5t-3 5.5v16q0 3 3 5.5t7 2.5h63q-43 25 -73 64h-32q-13 0 -22.5 -9.5t-9.5 -22.5v-96q0 -13 9.5 -22.5t22.5 -9.5h448
q13 0 22.5 9.5t9.5 22.5v96q0 13 -9.5 22.5t-22.5 9.5z" />
    <glyph glyph-name="download" unicode="&#xf019;" 
d="M216 448h80q10 0 17 -7t7 -17v-168h88q13 0 18 -12.5t-4 -21.5l-152 -152q-6 -6 -14 -6t-14 6l-152 152q-9 9 -4 21.5t18 12.5h88v168q0 10 7 17t17 7zM512 72v-112q0 -10 -7 -17t-17 -7h-464q-10 0 -17 7t-7 17v112q0 10 7 17t17 7h147l49 -49q15 -15 36 -15t36 15
l49 49h147q10 0 17 -7t7 -17zM388 -16q0 8 -6 14t-14 6t-14 -6t-6 -14t6 -14t14 -6t14 6t6 14zM452 -16q0 8 -6 14t-14 6t-14 -6t-6 -14t6 -14t14 -6t14 6t6 14z" />
    </font>
</defs>
</svg>
